1 сезон

3 сезон

iTunes

1

iTunes

DUB Netflix

iTunes

13

1 сезон

RePack

30

Deluxe

pack

Легкие деньги

ВАЖНО

ИГРА 18+

pack

RePack

MK11

RePack

jed

RePack

fifa19

RePack

RDR2

RePack

NEED FOR SPEED™ PAYBACK

4 сезон

9 сезон

Бесстыжие 9 сезон

Все сериалы

все сериалы на PB.wtf

RePack

FAR CRY 5

Anonymous, добрый вечер, мы не успеваем до 1 числа собрать деньги на оплату серверов, помогите нам пожалуйста в это трудное время. В качестве благодарности мы отключим Вам всю рекламу на сайте (укажите свой ник в строку Ваше имя)!

×
  
Magnet ссылка

Снайпер: Специальный отряд / Sniper: Special Ops (Фред Олен Рэй ) [2016, драма, военный, WEB-DLRip, Любительский многоголосый] piratbit.org

Снайпер: Специальный отряд через торрент piratbit.org

Размер: 1.36 GB | Добавлен: 5 лет 1 мес. назад | Торрент скачан:260 раз
Скачать  

20-05-2016 07:45 Снайпер: Специальный отряд Скачать торрент  

Снайпер: Специальный отряд / Sniper: Special Ops

Год выпуска: 2016
Страна: США
Жанр: драма, военный
Продолжительность: 01:26:33
Перевод: Любительский многоголосый
Режиссер: Фред Олен Рэй
В ролях: Стивен Сигал (Jake), Роб Ван Дам (Vasquez), Тим Эбелл (Vic), Дейл Дай (Jackson), Шарлин Амойя (Janet), Джейсон-Шейн Скотт (Tyler), Дэниэл Буко (Rich), Энтони Батарсе (Bashir), Джералд Уэбб (Marcus), Пол Логан (Charlie), Джефф Босли (Doc), Джим Пул (Chris)
Описание:
Специальный отряд вооруженных сил, во главе с опытным снайпером сержантом Джейком Чандлером, отправляются в захолустную афганскую деревню, чтобы освободить американского конгрессмена удерживаемого талибами. Спасительная миссия увенчалась успехом, но Джейк, отрезанный после перестрелки с врагом, остается, чтобы помочь раненным солдатам.
Рейтинг:

MPAA: R - Лицам до 17 лет обязательно присутствие взрослого
Реклама: Присутствуют вставки голосовой и текстовой рекламы.
Качество: WEB-DLRip
Формат: AVI
Видео: XviD, 720x400 (16:9), 1852 kbps, 23,976 fps, 0,268 bpp
Аудио: AC3 / 2.0 / 48 kHz / 384 kbps / 16 bit

Код:

General
Complete name                            : D:\torrent\qbtorrent\Снайпер. Специальный отряд - Sniper. Special Ops (2016)_WEB-DLRip.1400MB.avi
Format                                   : AVI
Format/Info                              : Audio Video Interleave
File size                                : 1.36 GiB
Duration                                 : 1h 26mn
Overall bit rate                         : 2 246 Kbps
Writing application                      : VirtualDubMod 1.5.10.2 (build 2542/release)
Writing library                          : VirtualDubMod build 2542/release

Video
ID                                       : 0
Format                                   : MPEG-4 Visual
Format profile                           : Advanced Simple@L5
Format settings, BVOP                    : 2
Format settings, QPel                    : No
Format settings, GMC                     : No warppoints
Format settings, Matrix                  : Custom
Codec ID                                 : XVID
Codec ID/Hint                            : XviD
Duration                                 : 1h 26mn
Bit rate                                 : 1 852 Kbps
Width                                    : 720 pixels
Height                                   : 400 pixels
Display aspect ratio                     : 16:9
Frame rate                               : 23.976 fps
Color space                              : YUV
Chroma subsampling                       : 4:2:0
Bit depth                                : 8 bits
Scan type                                : Progressive
Compression mode                         : Lossy
Bits/(Pixel*Frame)                       : 0.268
Stream size                              : 1.12 GiB (82%)
Writing library                          : XviD 1.2.1 (UTC 2008-12-04)

Audio
ID                                       : 1
Format                                   : AC-3
Format/Info                              : Audio Coding 3
Mode extension                           : CM (complete main)
Codec ID                                 : 2000
Duration                                 : 1h 26mn
Bit rate mode                            : Constant
Bit rate                                 : 384 Kbps
Channel(s)                               : 2 channels
Channel positions                        : Front: L R
Sampling rate                            : 48.0 KHz
Bit depth                                : 16 bits
Compression mode                         : Lossy
Delay relative to video                  : 4ms
Stream size                              : 238 MiB (17%)
Alignment                                : Split accross interleaves
Interleave, duration                     : 42 ms (1.00 video frame)
Interleave, preload duration             : 500 ms






piratbit.org



Скачать Снайпер: Специальный отряд через торрент http://i4.imageban.ru/out/2016/05/20/f79b9b6a3a184e8b90cbfebcf8735a2d.jpg Скачать фильм Снайпер: Специальный отряд через торрент бесплантно в хорошем качестве Описание: Специальный отряд вооруженных сил, во главе с опытным снайпером сержантом Джейком Чандлером, отправляются в захолустную афганскую ... 8.1 10 14
Торрент: Зарегистрирован [2016-05-20 07:45] · скачан: 260 раз
Статус: T временная
Размер: 1.36 GB
Как cкачать? Как скачать Снайпер: Специальный отряд через торрент | UTorrent

% Раздел Тема Автор DL S | L
T Фильмы 2016 [DVDrip, WEB-DLRip, HDrip] (DUB, MVO) [ 746 MB ] Снайпер: Специальный отряд / Sniper: Special Ops [2016 военный WEB-DLRip Любительский [Parovoz Production]] Sherif Скачать
1 | 0

28-11-2019 20:33  

Отключить всю рекламу на сайте

    Дорогой пользователь! Огромная просьба, поблагодарите релизера, оцените раздачу и оставьте свои комментарий, если Вы скачали Снайпер: Специальный отряд через торрент бесплатно! Внесите свою лепту в развитие PiratBit!
    Комментировать посты могут только пользователи прошедшие не сложную регистрацию
    Показать сообщения:    

    Снайпер: Специальный отряд через торрент
    Скачать бесплатно Снайпер: Специальный отряд
    Снайпер: Специальный отряд скачать торрент
    Снайпер: Специальный отряд смотреть онлайн
    Cкачать фильм Снайпер: Специальный отряд бесплатно
    Снайпер: Специальный отряд скачать торрент в хорошем качестве
    Снайпер: Специальный отряд смотреть онлайн бесплатно в хорошем качестве


    Вы не можете начинать темы
    Вы не можете отвечать на сообщения
    Вы не можете редактировать свои сообщения
    Вы не можете удалять свои сообщения
    Вы не можете голосовать в опросах
    Вы не можете прикреплять файлы к сообщениям
    Вы можете скачивать файлы