Доктор Стрэндж

Лицензия

Добыча

Дубляж

Уэнсдэй

1 сезон

Тор

Дубляж

В эфире

Дубляж

Там, где раки поют

MVO

Властелин колец

1 сезон

Deluxe

pack

Рекомендуем

30

Пиратка

ВАЖНО

ВАЖНО

Ghostwire

Пиратка

jed

RePack

nioh2

RePack

RDR2

RePack

NEED FOR SPEED™ PAYBACK

RePack

скачать торрент

Кинопоиск HD

Острые козырьки 6 сезон

6 сезон

FAR CRY 6

RePack

скачать торрент

Лицензия

скачать торрент

MVO

1

1 сезон

скачать торрент

1 сезон

скачать торрент

Лицензия

  

Малыш / The Baby (Тед Пост) [1973, ужасы, драма, BDRip 1080p ] DVO

Малыш через торрент piratbit.org

Размер: 9.64 GB | Добавлен: 6 лет 6 мес. назад | Торрент скачан:7 раз
Смотреть онлайн | Скачать   

20-05-2016 16:10 Малыш Скачать торрент  

Название: Малыш
Оригинальное название: The Baby
Год выпуска: 1973
Страна: США
Жанр: ужасы, драма
Продолжительность: 01:25:00
Перевод: Любительский двухголосый закадровый

Режиссёр: Тед Пост

В ролях: Анжанетт Комер, Рут Роман, Марианна Хилл, Сюзанна Зенор, Тод Эндрюс, Майкл Патаки, Беатрис Мэнли, Эрин О’Рейли, Дон Маллон, Джозеф Бернард

Описание: Сотрудницу социальной службы Энн Гентри отправляют в одну семью, чтобы расследовать исчезновения служащих, которых компания ранее посылала к ним. Вдова, миссис Уодсворт и две её дочери Жермен и Альба, живут под одной крышей с загадочным ребёнком. Это 23-летнее существо, которое все ещё сидит в детской кроватке, не может ходить и говорить, а только кричит. Малыш ползает по всему дому в пелёнках и пьёт молоко из бутылки. У Энн складывается впечатление, что семья даже не стремится улучшить состояние умственно отсталого Малыша. Энн видит потенциал Малыша, разговаривает с ним, учит его чему-то и хочет отправить в клинику, но семья категорически отказывается от этого предложения...



Качество: BDRip 1080p Сравнение с исходником
Формат: MKV
Видео: MPEG-4 AVC, 15.8 Mбит/с, 1920x1080, 23,976 кадра/с
Аудио 1: русский, AC3, 192 kbps, 2 ch, 48 kHz [двухголосый закадровый, den904 и DeadSno]
Аудио 2: английский, AC3, 192 kbps, 2 ch, 48 kHz [оригинал]
Общее
Уникальный идентификатор : 250213863695148129715871665958401837460 (0xBC3D6FF036E46712B0DA5C6684438994)
Полное имя : D:\Video\Малыш.1973.BDRip.1080p.mkv
Формат : Matroska
Версия формата : Version 4 / Version 2
Размер файла : 9,64 Гбайт
Продолжительность : 1 ч. 25 м.
Общий поток : 16,2 Мбит/сек
Дата кодирования : UTC 2016-05-20 14:51:08
Программа кодирования : mkvmerge v8.2.0 ('World of Adventure') 64bit
Библиотека кодирования : libebml v1.3.1 + libmatroska v1.4.2

Видео
Идентификатор : 1
Формат : AVC
Формат/Информация : Advanced Video Codec
Профиль формата : High@L4.1
Параметр CABAC формата : Да
Параметр ReFrames формата : 4 кадра
Идентификатор кодека : V_MPEG4/ISO/AVC
Продолжительность : 1 ч. 24 м.
Битрейт : 15,8 Мбит/сек
Ширина : 1920 пикселей
Высота : 1080 пикселей
Соотношение сторон : 16:9
Режим частоты кадров : Постоянный
Частота кадров : 23,976 (24000/1001) кадра/сек
Цветовое пространство : YUV
Субдискретизация насыщенности : 4:2:0
Битовая глубина : 8 бит
Тип развёртки : Прогрессивная
Бит/(Пиксели*Кадры) : 0.319
Размер потока : 9,41 Гбайт (98%)
Библиотека кодирования : x264 core 146 r2538 121396c
Настройки программы : cabac=1 / ref=4 / deblock=1:-3:-3 / analyse=0x3:0x113 / me=umh / subme=10 / psy=1 / psy_rd=1.00:0.15 / mixed_ref=1 / me_range=32 / chroma_me=1 / trellis=2 / 8x8dct=1 / cqm=0 / deadzone=21,11 / fast_pskip=1 / chroma_qp_offset=-3 / threads=6 / lookahead_threads=1 / sliced_threads=0 / nr=0 / decimate=1 / interlaced=0 / bluray_compat=0 / constrained_intra=0 / bframes=7 / b_pyramid=2 / b_adapt=2 / b_bias=0 / direct=1 / weightb=1 / open_gop=0 / weightp=2 / keyint=230 / keyint_min=23 / scenecut=40 / intra_refresh=0 / rc_lookahead=40 / rc=crf / mbtree=0 / crf=19.2 / qcomp=0.60 / qpmin=0 / qpmax=69 / qpstep=4 / vbv_maxrate=40000 / vbv_bufsize=50000 / crf_max=0.0 / nal_hrd=none / filler=0 / ip_ratio=1.40 / pb_ratio=1.30 / aq=1:1.00
Язык : English
Default : Да
Forced : Нет

Аудио #1
Идентификатор : 2
Формат : AC-3
Формат/Информация : Audio Coding 3
Расширение режима : CM (complete main)
Параметр Endianness формата : Big
Идентификатор кодека : A_AC3
Продолжительность : 1 ч. 24 м.
Вид битрейта : Постоянный
Битрейт : 192 Кбит/сек
Каналы : 2 канала
Расположение каналов : Front: L R
Частота : 48,0 КГц
Частота кадров : 31,250 кадров/сек (1536 spf)
Метод сжатия : С потерями
Размер потока : 117 Мбайт (1%)
Заголовок : двухголосый закадровый, den904 и DeadSno
Язык : Russian
Default : Да
Forced : Нет

Аудио #2
Идентификатор : 3
Формат : AC-3
Формат/Информация : Audio Coding 3
Расширение режима : CM (complete main)
Параметр Endianness формата : Big
Идентификатор кодека : A_AC3
Продолжительность : 1 ч. 25 м.
Вид битрейта : Постоянный
Битрейт : 192 Кбит/сек
Каналы : 2 канала
Расположение каналов : Front: L R
Частота : 48,0 КГц
Частота кадров : 31,250 кадров/сек (1536 spf)
Метод сжатия : С потерями
Размер потока : 117 Мбайт (1%)
Заголовок : Original
Язык : English
Default : Нет
Forced : Нет



Скачать Малыш через торрент http://s019.radikal.ru/i620/1605/3f/33513813d807.jpg Скачать, смотреть онлайн Малыш бесплантно в хорошем качестве Описание: Сотрудницу социальной службы Энн Гентри отправляют в одну семью, чтобы расследовать исчезновения служащих, которых компания ранее ... 10 10 3
Info! Золотая раздача, скачанное не засчитывается.
Торрент: Зарегистрирован [2016-05-20 16:10] · скачан: 7 раз
Статус: √ проверено
Размер: 9.64 GB
Как cкачать? Как скачать Малыш через торрент | UTorrent

% Раздел Тема Автор DL S | L
Фильмы [HD 720p, 1080p] (Звук Cam, VO, DVO) [ 3.42 GB ] Малыш / The Baby | | 720p msltel Скачать
1 | 0

28-11-2019 20:33  


Отключить вcю реклaмy на сайте, в т.ч. и в плеере онлайн просмотра!

    Дорогой пользователь! Огромная просьба, поблагодарите релизера, оцените раздачу и оставьте свои комментарий, если Вы скачали Малыш через торрент бесплатно!!
    Комментировать посты могут только пользователи прошедшие не сложную регистрацию
    Показать сообщения:    


    Малыш через торрент
    Скачать бесплатно Малыш
    Малыш скачать торрент
    Малыш смотреть онлайн
    Cкачать фильм Малыш бесплатно
    Малыш скачать торрент в хорошем качестве
    Малыш смотреть онлайн бесплатно в хорошем качестве
    Вы не можете начинать темы
    Вы не можете отвечать на сообщения
    Вы не можете редактировать свои сообщения
    Вы не можете удалять свои сообщения
    Вы не можете голосовать в опросах
    Вы не можете прикреплять файлы к сообщениям
    Вы можете скачивать файлы
    Малыш / The Baby [1973, ужасы, драма, BDRip 1080p ] DVO смотреть онлайн, скачать торрент picoco.icu