1 сезон

3 сезон

iTunes

1

iTunes

DUB Netflix

iTunes

13

1 сезон

RePack

30

Deluxe

pack

Легкие деньги

ВАЖНО

ИГРА 18+

pack

RePack

MK11

RePack

jed

RePack

fifa19

RePack

RDR2

RePack

NEED FOR SPEED™ PAYBACK

4 сезон

9 сезон

Бесстыжие 9 сезон

Все сериалы

все сериалы на PB.wtf

RePack

FAR CRY 5

Anonymous, доброй ночи, мы не успеваем до 1 числа собрать деньги на оплату серверов, помогите нам пожалуйста в это трудное время. В качестве благодарности мы отключим Вам всю рекламу на сайте (укажите свой ник в строку Ваше имя)!

×
  
Magnet ссылка

До самого конца / All the Way (Джей Роуч) [2016, драма, биография, история, WEB-DLRip] MVO / Amedia piratbit.org

До самого конца через торрент piratbit.org

Размер: 1.37 GB | Добавлен: 5 лет назад | Торрент скачан:232 раза
Скачать  

23-05-2016 12:47 До самого конца Скачать торрент  

До самого конца / All the WayСтрана: США

Производство: Amblin Entertainment, HBO Films, Moon Shot Entertainment

Год выпуска: 2016

Жанр: драма, биография, история

Продолжительность: 02:11:59

Перевод: Профессиональный (многоголосый, закадровый) | Amedia

Субтитры: нет

Режиссер: Джей Роуч

Автор сценария: Роберт Шенккан

В ролях: Энтони Маки, Брайан Крэнстон, Джо Мортон, Брэдли Уитфорд, Фрэнк Ланджелла, Стивен Рут, Мелисса Лео, Итэн Филлипс

Описание: Линдон Джонсон становится президентом США на волне всеобщего хаоса, вызванного внезапным убийством Джона Кеннеди. В первый же год на посту главы государства Линдон Джонсон способствует принятию Акта о гражданских правах, который положит конец расовой сегрегации на юге страны — по крайней мере на бумаге...






Качество: WEB-DLRip

Формат: АVI

Видео кодек: XviD

Аудио кодек: АС3

Видео: 720x400 (16:9), 23.976 fps, XviD ~1 281 kbps avg, 0.113 bit/pixel

Аудио: 48.0 kHz, AC3 Dolby Digital, 2/0 (L,R) ch, ~192 kbps

General

Format : AVI

Format/Info : Audio Video Interleave

Movie name : Do.SamoGo.Kontsa.2O16.P.WEB-DLRip.1400MB

Writing application : VirtualDubMod 1.5.10.3 | (build 2550/release)

Writing library : VirtualDubMod build 2550/release

Copyright : MoreFilms

Video

ID : 0

Format : MPEG-4 Visual

Format profile : Advanced Simple@L5

Format settings, BVOP : 2

Format settings, QPel : No

Format settings, GMC : No warppoints

Format settings, Matrix : Custom

Codec ID : XVID

Codec ID/Hint : XviD

Bit rate : 1281 Kbps

Width : 720 pixels

Height : 400 pixels

Display aspect ratio : 16:9

Frame rate : 23.976 fps

Color space : YUV

Chroma subsampling : 4:2:0

Bit depth : 8 bits

Scan type : Progressive

Compression mode : Lossy

Bits/(Pixel*Frame) : 0.113

Stream size : 10.6 MiB (79%)

Writing library : XviD 1.2.1 (UTC 2008-12-04)

Audio

ID : 1

Format : AC-3

Format/Info : Audio Coding 3

Mode extension : CM (complete main)

Format settings, Endianness : Big

Codec ID : 2000

Bit rate mode : Constant

Bit rate : 192 Kbps

Channel(s) : 2 channels

Channel positions : Front: L R

Sampling rate : 48.0 KHz

Compression mode : Lossy

Delay relative to video : 3ms

Stream size : 2.61 MiB (20%)

Alignment : Split accross interleaves

Interleave, duration : 42 ms (1.00 video frame)

Interleave, preload duration : 500 ms
piratbit.org



Скачать До самого конца через торрент http://img10.lostpic.net/2016/05/23/a8047da48e59d0eafcda2607e7dc056a.png Скачать фильм До самого конца через торрент бесплантно в хорошем качестве Описание: Линдон Джонсон становится президентом США на волне всеобщего хаоса, вызванного внезапным убийством Джона Кеннеди. В первый же год ... 10 10 6
Торрент: Зарегистрирован [2016-05-23 12:47] · скачан: 232 раз
Статус: T временная
Размер: 1.37 GB
Как cкачать? Как скачать До самого конца через торрент | UTorrent

% Раздел Тема Автор DL S | L
Фильмы (WEB-DL 720p, 1080p) [ 4.26 GB ] До самого конца / All the Way [2016 биография история WEB-DL 720p] MVO / Amedia -Lexx- Скачать
1 | 0

28-11-2019 20:33  

Отключить всю рекламу на сайте

15-07-2016 02:48 До самого конца Скачать торрент  

Кто смотрел,как фильм?piratbit.org



08-08-2016 12:31 До самого конца Скачать торрент  

фильм хорощий - если интересны дела политики и тдpiratbit.org



11-08-2016 06:42 До самого конца Скачать торрент  

Про нигеровpiratbit.org



    Дорогой пользователь! Огромная просьба, поблагодарите релизера, оцените раздачу и оставьте свои комментарий, если Вы скачали До самого конца через торрент бесплатно! Внесите свою лепту в развитие PiratBit!
    Комментировать посты могут только пользователи прошедшие не сложную регистрацию
    Показать сообщения:    

    До самого конца через торрент
    Скачать бесплатно До самого конца
    До самого конца скачать торрент
    До самого конца смотреть онлайн
    Cкачать фильм До самого конца бесплатно
    До самого конца скачать торрент в хорошем качестве
    До самого конца смотреть онлайн бесплатно в хорошем качестве


    Вы не можете начинать темы
    Вы не можете отвечать на сообщения
    Вы не можете редактировать свои сообщения
    Вы не можете удалять свои сообщения
    Вы не можете голосовать в опросах
    Вы не можете прикреплять файлы к сообщениям
    Вы можете скачивать файлы