1 сезон

3 сезон

iTunes

1

iTunes

DUB Netflix

iTunes

13

1 сезон

RePack

30

Deluxe

pack

Легкие деньги

ВАЖНО

ИГРА 18+

pack

RePack

MK11

RePack

jed

RePack

fifa19

RePack

RDR2

RePack

NEED FOR SPEED™ PAYBACK

4 сезон

9 сезон

Бесстыжие 9 сезон

Все сериалы

все сериалы на PB.wtf

RePack

FAR CRY 5

Anonymous, добрый день, мы не успеваем до 1 числа собрать деньги на оплату серверов, помогите нам пожалуйста в это трудное время. В качестве благодарности мы отключим Вам всю рекламу на сайте (укажите свой ник в строку Ваше имя)!

×
  
Magnet ссылка

Бэтмен против Супермена: На заре справедливости / Batman v Superman: Dawn of Justice (2016) BDRip / Ultimate Edition / iTunes piratbit.org

Бэтмен против Супермена: На заре справедливости через торрент piratbit.org

Размер: 2.19 GB | Добавлен: 4 года 11 мес. назад | Торрент скачан:1673 раза
Скачать  

13-07-2016 21:26 Бэтмен против Супермена: На заре справедливости Скачать торрент  

Информация о фильме

Название: Бэтмен против Супермена: На заре справедливости

Оригинальное название: Batman v Superman: Dawn of Justice

Год выпуска: 2016

Жанр: Фантастика, фэнтези, боевик, приключения

Режиссер: Зак Снайдер

В ролях: Генри Кавилл, Бен Аффлек, Галь Гадот, Джейсон Момоа, Эми Адамс, Джесси Айзенберг, Джеффри Дин Морган, Джена Мэлоун, Эзра Миллер

Описание: Опасаясь, что действия богоподобного супергероя так и останутся бесконтрольными, грозный и могущественный страж Готэм Сити бросает вызов самому почитаемому в наши дни спасителю Метрополиса, в то время как весь остальной мир решает, какой герой ему по-настоящему нужен. И пока Бэтмен и Супермен пребывают в состоянии войны друг с другом, возникает новая угроза, которая ставит человечество под самую большую опасность, с которой оно когда-либо сталкивалось.



Выпущено: США / Atlas Entertainment, DC Comics, DC Entertainment, RatPac-Dune Entertainment, Warner Bros. Pictures

Продолжительность: 03:02:31

Перевод: Дублированный [iTunes]

+ профессиональный (многоголосный, закадровый) перевод на расширенные сцены! Полный перевод!

Файл

Кодек: AVI

Качество: BDRip

Видео: XviD, 1319 Кбит/с,720x304

Звук: АС3, 6 ch, 384 Кбит/с
Общее

Полное имя : D:ВидеоBatman.v.Superman.Dawn.of.Justice.2016.Extended.Ultimate.Edition.BDRip.2.18.ExKinoRay.avi

Формат : AVI

Формат/Информация : Audio Video Interleave

Профиль формата : OpenDML

Размер файла : 2,19 Гбайт

Продолжительность : 3 ч. 2 м.

Общий поток : 1714 Кбит/сек

Программа кодирования : VirtualDubMod 1.5.10.3 (build 2550/release)

Библиотека кодирования : VirtualDubMod build 2550/release

Видео

Идентификатор : 0

Формат : MPEG-4 Visual

Профиль формата : Advanced Simple@L5

Параметр BVOP формата : 2

Параметр QPel формата : Нет

Параметр GMC формата : Без точки перехода

Параметр матрицы формата : Выборочная

Режим смешивания : Сжатый битовый поток

Идентификатор кодека : XVID

Идентификатор кодека/Подсказка : XviD

Продолжительность : 3 ч. 2 м.

Битрейт : 1319 Кбит/сек

Ширина : 720 пикселей

Высота : 304 пикселя

Соотношение сторон : 2,35:1

Частота кадров : 23,976 кадра/сек

Цветовое пространство : YUV

Субдискретизация насыщенности : 4:2:0

Битовая глубина : 8 бит

Тип развёртки : Прогрессивная

Метод сжатия : С потерями

Бит/(Пиксели*Кадры) : 0.251

Размер потока : 1,68 Гбайт (77%)

Библиотека кодирования : XviD 73

Аудио

Идентификатор : 1

Формат : AC-3

Формат/Информация : Audio Coding 3

Расширение режима : CM (complete main)

Параметр Endianness формата : Big

Идентификатор кодека : 2000

Продолжительность : 3 ч. 2 м.

Вид битрейта : Постоянный

Битрейт : 384 Кбит/сек

Каналы : 6 каналов

Расположение каналов : Front: L C R, Side: L R, LFE

Частота : 48,0 КГц

Битовая глубина : 16 бит

Метод сжатия : С потерями

Размер потока : 501 Мбайт (22%)

Выравнивание : Разделение по промежуткам

Продолжительность промежутка : 42 мс. (1,00 видеокадр)

Время предзагрузки промежутка : 500 мс.
piratbit.org



Скачать Бэтмен против Супермена: На заре справедливости через торрент http://i61.fastpic.ru/big/2016/0702/10/bd15fe6ec78e7f35cffdb681c35b8310.jpg Скачать фильм Бэтмен против Супермена: На заре справедливости через торрент бесплантно в хорошем качестве Описание: Опасаясь, что действия богоподобного супергероя так и останутся бесконтрольными, грозный и могущественный страж Готэм Сити ... 9.4 10 39
Info! Золотая раздача, скачанное не засчитывается.
Торрент: Зарегистрирован [2016-07-13 21:26] · скачан: 1 673 раз
Статус: √ проверено
Размер: 2.19 GB
Как cкачать? Как скачать Бэтмен против Супермена: На заре справедливости через торрент | UTorrent

28-11-2019 20:33  

Отключить всю рекламу на сайте

14-07-2016 06:18 Бэтмен против Супермена: На заре справедливости Скачать торрент  

Мне понравилось то, что не хэппи энд как обычно, сильный фильмpiratbit.org



14-07-2016 06:30 Бэтмен против Супермена: На заре справедливости Скачать торрент  

Дополнительный час для расширенной версии оказался лишним,ничего не произошло особо. Двух часов хватает.piratbit.org



14-07-2016 07:20 Бэтмен против Супермена: На заре справедливости Скачать торрент  

Лалка писал(а):

Дополнительный час для расширенной версии оказался лишним,ничего не произошло особо. Двух часов хватает.

30 минутpiratbit.org



14-07-2016 10:07 Бэтмен против Супермена: На заре справедливости Скачать торрент  

МаксdOs писал(а):

Мне понравилось то, что не хэппи энд как обычно, сильный фильм

Вот такой же палкой тебе надо как на аве, за спойлерpiratbit.org



14-07-2016 13:15 Бэтмен против Супермена: На заре справедливости Скачать торрент  

где расширеннная? когда? с повышенным битрейтом гигов итак на 12piratbit.org



15-07-2016 03:55 Бэтмен против Супермена: На заре справедливости Скачать торрент  

Фильм норм но нечего не понял) piratbit.org



15-07-2016 19:40 Бэтмен против Супермена: На заре справедливости Скачать торрент  

где сэмпл?piratbit.org



17-07-2016 16:10 Бэтмен против Супермена: На заре справедливости Скачать торрент  

24 минуты. Большее д@рьмо, сложно и придумать.piratbit.org



19-07-2016 10:07 Бэтмен против Супермена: На заре справедливости Скачать торрент  

нормpiratbit.org



    Дорогой пользователь! Огромная просьба, поблагодарите релизера, оцените раздачу и оставьте свои комментарий, если Вы скачали Бэтмен против Супермена: На заре справедливости через торрент бесплатно! Внесите свою лепту в развитие PiratBit!
    Комментировать посты могут только пользователи прошедшие не сложную регистрацию
    Показать сообщения:    

    Бэтмен против Супермена: На заре справедливости через торрент
    Скачать бесплатно Бэтмен против Супермена: На заре справедливости
    Бэтмен против Супермена: На заре справедливости скачать торрент
    Бэтмен против Супермена: На заре справедливости смотреть онлайн
    Cкачать фильм Бэтмен против Супермена: На заре справедливости бесплатно
    Бэтмен против Супермена: На заре справедливости скачать торрент в хорошем качестве
    Бэтмен против Супермена: На заре справедливости смотреть онлайн бесплатно в хорошем качестве


    Вы не можете начинать темы
    Вы не можете отвечать на сообщения
    Вы не можете редактировать свои сообщения
    Вы не можете удалять свои сообщения
    Вы не можете голосовать в опросах
    Вы не можете прикреплять файлы к сообщениям
    Вы можете скачивать файлы