Мега распродажа FORZA HORIZON 4 ULTIMATE+ВСЕ DLC+ОНЛАЙН всего за 499р. 349 руб. (супер цена). Внимание количество ограничено!!!

Лицензия

30

iTunes

мы

iTunes

1

1 сезон

Чернобыль

1 сезон

Ральф против интернета

MVO

Покемон. Детектив Пикачу

8 сезон

Игра престолов

iTunes

1+1

ИГРА 18+

pack

ВАЖНО

!!Акция!!

Alien_RageХит недели

RePack

Resident Evil 21
pack

RePack

Metro:Exodus

!!Акция!!

Alien_Rage

RePack

fifa19

RePack

Assassins Creed: Odyssey

RePack

NEED FOR SPEED™ PAYBACK

3 сезон

9 сезон

Бесстыжие 9 сезон

Все сериалы

все сериалы на PB.wtf

RePack

FAR CRY 5
Ребята, катастрофически не хватает 2730р. для оплаты серверов за МАЙ (всвязи с блокировками трафик упал в 3 раза), 1-2р., выручайте.
  

Проповедник / Preacher / Сезон: 1 / Серии 1 - 10 из 10) (Эван Голдберг, Сет Роген, Гильермо Наварро) [2016 , фэнтези, драма, детектив, WEB-DLRip-AVC, Профессиональный многоголосый [AlexFilm] ] от R.G.Resident piratbit.org

Проповедник через торрент piratbit.org

Размер: 4.97 GB | Добавлен: 2 года 10 мес. назад | Торрент скачан:292 раза
Скачать  

14-07-2016 10:58 Проповедник Скачать торрент  


ПроповедникPreacher
Год выпуска
2016

Страна
США
Жанр
фэнтези, драма, детектив, приключения

Продолжительность
00:44:00
Перевод
Профессиональный многоголосый
Субтитры Нет
В ролях

Доминик Купер (Jesse Custer), Джозеф Гилган (Cassidy), Рут Негга (Tulip O'Hare), Люси Гриффитс (Emily), У. Эрл Браун (Hugo Root), Дерек Уилсон (Donnie Schenck), Йен Коллетти (Arseface), Том Брук (Fiore), Анатол Юсеф (DeBlanc), Грэм МакТавиш (The Cowboy), Дж. Нэйтан Симмонс (Core Congregation), Роджер Ларанц (Core Congregation)

Режиссёр
Эван Голдберг, Сет Роген, Гильермо Наварро
Описание
Священник Джесси Кастер по воле случая стал носителем внутри своего естества странного существа по имени Генезис. Это дитя совокупления ангела и демона представляет собой одновременно чистый идеал и квинтэссенцию света, но также сгусток абсолютного зла. Генезис — единственное существо во Вселенной, которое может встать вровень с Богом, если того пожелает, а его носитель автоматически становится самым могущественным существом в материальном мире. И это проповедник Кастер.

Мировая премьера: 14 марта 2016

Перевод: Константин Кривоногов
Монтаж и сведение звука: Михаил Шорыгин и Михаил Суслов
Роли озвучивали:
Наталья Ланц
Таисия Тришина
Михаил Суслов
Владимир Курдов
Константин Погодаев
Рустам Шайхиев

Код:

General
Unique ID                                : 214679473458227524818795786152924581107 (0xA181C33C3BEA1728A762D6BDD2468CF3)
Complete name                            : C:\Preacher.Season 1.WEB-DLRip-AVC.by.White Smoke.R.G.Resident.AlexFilm.mkv\Preacher.s01e07.WEB-DLRip-AVC.by.White Smoke.R.G.Resident.AlexFilm.mkv
Format                                   : Matroska
Format version                           : Version 4 / Version 2
File size                                : 499 MiB
Duration                                 : 44mn 0s
Overall bit rate                         : 1 586 Kbps
Encoded date                             : UTC 2016-07-13 17:14:10
Writing application                      : mkvmerge v6.8.0 ('Theme for Great Cities') 64bit built on Mar  2 2014 21:34:26
Writing library                          : libebml v1.3.0 + libmatroska v1.4.1

Video
ID                                       : 1
Format                                   : AVC
Format/Info                              : Advanced Video Codec
Format profile                           : High@L4.1
Format settings, CABAC                   : Yes
Format settings, ReFrames                : 12 frames
Codec ID                                 : V_MPEG4/ISO/AVC
Duration                                 : 44mn 0s
Bit rate                                 : 1 200 Kbps
Width                                    : 1 024 pixels
Height                                   : 576 pixels
Display aspect ratio                     : 16:9
Frame rate                               : 23.976 fps
Color space                              : YUV
Chroma subsampling                       : 4:2:0
Bit depth                                : 8 bits
Scan type                                : Progressive
Bits/(Pixel*Frame)                       : 0.085
Stream size                              : 368 MiB (74%)
Writing library                          : x264 core 148 r2638 7599210
Encoding settings                        : cabac=1 / ref=12 / deblock=1:-3:-3 / analyse=0x3:0x113 / me=umh / subme=9 / psy=1 / psy_rd=1.00:0.00 / mixed_ref=1 / me_range=32 / chroma_me=1 / trellis=2 / 8x8dct=1 / cqm=0 / deadzone=21,11 / fast_pskip=1 / chroma_qp_offset=-2 / threads=6 / lookahead_threads=1 / sliced_threads=0 / nr=0 / decimate=0 / interlaced=0 / bluray_compat=0 / constrained_intra=0 / bframes=12 / b_pyramid=2 / b_adapt=2 / b_bias=10 / direct=1 / weightb=0 / open_gop=0 / weightp=2 / keyint=230 / keyint_min=23 / scenecut=40 / intra_refresh=0 / rc_lookahead=40 / rc=2pass / mbtree=1 / bitrate=1200 / ratetol=1.0 / qcomp=0.85 / qpmin=0 / qpmax=69 / qpstep=4 / cplxblur=20.0 / qblur=0.5 / ip_ratio=1.40 / aq=1:1.00
Language                                 : English
Default                                  : Yes
Forced                                   : No

Audio
ID                                       : 2
Format                                   : AC-3
Format/Info                              : Audio Coding 3
Mode extension                           : CM (complete main)
Codec ID                                 : A_AC3
Duration                                 : 44mn 0s
Bit rate mode                            : Constant
Bit rate                                 : 384 Kbps
Channel(s)                               : 6 channels
Channel positions                        : Front: L C R, Side: L R, LFE
Sampling rate                            : 48.0 KHz
Bit depth                                : 16 bits
Compression mode                         : Lossy
Stream size                              : 121 MiB (24%)
Title                                    : DD 5.1 Alexfilm
Language                                 : Russian
Default                                  : Yes
Forced                                   : No



Тех. данные
Качество
WEB-DLRip-AVC Rip by
Формат
MKV
Видео кодек
Видео:AVC, 1024x576 (16:9), 1200 kbps, 23,976 fps, 0,085 bpp
Аудио кодек
Аудио:русский / AC3 / 5.1 / 48 kHz / 384 kbps / 16 bit ||

Добавлена 9-10 серияpiratbit.org



Скачать Проповедник через торрент http://i5.imageban.ru/out/2016/07/14/8032be2d90068c5ec52478d703246d46.png Скачать фильм Проповедник через торрент бесплантно в хорошем качестве Описание Священник Джесси Кастер по воле случая стал носителем внутри своего естества странного существа по имени Генезис. Это дитя ... 9.5 10 34
Info! Золотая раздача, скачанное не засчитывается.
Торрент: Зарегистрирован [2016-08-05 20:03] · скачан: 292 раз
Статус: √ проверено
Размер: 4.97 GB
Как cкачать? Как скачать Проповедник через торрент | qTorrent



Последний раз редактировалось: White Smoke (2016-08-05 20:03), всего редактировалось 3 раз(а)


>> Регистрируемся здесь <<






Отзывы и комментарии о схеме читаем и пишем здесь: ---> Отзывы и комментарии о схеме

Новые благодарочки в телеграм довольных пользователей:
скриншот   скриншот   скриншот   скриншот   скриншот

15-07-2016 02:36 Проповедник Скачать торрент  

Классный сериал, спасибо) piratbit.org



15-07-2016 16:12 Проповедник Скачать торрент  

согласен! стильненько) кэссиди доставляет неимоверно)
- Что ты курил?
- Утеплитель с чердака (с)piratbit.org



15-07-2016 17:03 Проповедник Скачать торрент  

О да!!! Джозеф Гилган просто жгет на все 100%,всем советую!
Сериал бомба!piratbit.org



20-07-2016 04:07 Проповедник Скачать торрент  

Добавлена 8 серияpiratbit.org



25-07-2016 18:15 Проповедник Скачать торрент  

когда след. серия? piratbit.org



28-07-2016 14:33 Проповедник Скачать торрент  

Где 9 серия?piratbit.org
KWhite Smoke писал(а):

обновлю сразу как тлько будет перевод



05-08-2016 20:33 Проповедник Скачать торрент  

Добавлена 9 10 серияpiratbit.org



04-04-2017 18:14 Проповедник Скачать торрент  

СОТОНА никак не угомонится стать равным Богуpiratbit.org



26-06-2018 15:32 Проповедник Скачать торрент  

piratbit.org



    Дорогой пользователь! Огромная просьба, поблагодарите релизера, оцените раздачу и оставьте свои комментарий, если Вы скачали Проповедник через торрент бесплатно! Внесите свою лепту в развитие PiratBit!
    Комментировать посты могут только пользователи прошедшие не сложную регистрацию
    Показать сообщения:    

    Проповедник через торрент
    Скачать бесплатно Проповедник
    Проповедник скачать торрент
    Проповедник смотреть онлайн
    Cкачать фильм Проповедник бесплатно
    Проповедник скачать торрент в хорошем качестве
    Проповедник смотреть онлайн бесплатно в хорошем качестве


    Вы не можете начинать темы
    Вы не можете отвечать на сообщения
    Вы не можете редактировать свои сообщения
    Вы не можете удалять свои сообщения
    Вы не можете голосовать в опросах
    Вы не можете прикреплять файлы к сообщениям
    Вы можете скачивать файлы