2 сезон

iTunes

MVO

1

2 сезон

iTunes

iTunes

1 сезон

RePack

30

Новинка

ВАЖНО

ИГРА 18+

pack

RePack

MK11
pack

Легкие деньги

RePack

jed

RePack

fifa19

RePack

RDR2

RePack

NEED FOR SPEED™ PAYBACK

4 сезон

9 сезон

Бесстыжие 9 сезон

Все сериалы

все сериалы на PB.wtf

RePack

FAR CRY 5

Anonymous, доброй ночи, мы не успеваем собрать деньги на оплату серверов за декабрь и январь, помогите нам пожалуйста в это трудное время. В качестве благодарности мы отключим Вам всю рекламу на сайте (укажите свой ник в строку Ваше имя)!

×
  
Magnet ссылка

Остановка / Rest Stop (Джон Шибан) [2006 г., ужасы, триллер, BDRip, Профессиональный (многоголосый)] piratbit.org

Остановка через торрент piratbit.org

Размер: 1.45 GB | Добавлен: 4 года 6 мес. назад | Торрент скачан:38 раз
Скачать  

15-07-2016 09:24 Остановка Скачать торрент  

Остановка / Rest Stop
Год выпуска: 2006
Страна: США
Жанр: ужасы, триллер
Продолжительность: 01:25:18
Перевод: Профессиональный (многоголосый)

Режиссер: Джон Шибан

Премьера в мире: 7 октября 2006



В ролях: Джейми Александер, Джозеф Джордж Мендицино, Дианна Руссо, Дайан Салинджер, Кертис Тейлор, Джозеф Лоуренс, Гари Энтин, Эдмунд Энтин, Дженнифер Кормак, Мики Пост

Описание: Двое молодых людей во время поездке из Техаса в Калифорнию останавливаются передохнуть и сделать свои дела. Когда Николь возвращается к месту остановки, ни ее друга, ни автомобиля нет на месте. И тут, как водится, появляется психопат на желтом грузовике и начинается игра в кошки-мышки. Задача проста — Николь в течение ночи должна найти и спасти своего приятеля и к тому же остаться в живых...

Качество: BDRip
Формат: AVI
Видео кодек: XviD
Аудио кодек: AC3
Видео: XviD, 704x400, 23.976 fps, 1780 kbps
Аудио: Rus, 48 kHz, AC3 Dolby Digital, 2/0 (L,R) ch, ~192 kbps
Аудио: Eng, 48 kHz, AC3 Dolby Digital, 3/2 (L,C,R,l,r) + LFE ch, ~448 kbps
General
Complete name : C:\PiratBit\Rest Stop Dead Ahead (2006) (BDRip)_[tfile.ru].avi
Format : AVI
Format/Info : Audio Video Interleave
File size : 1.45 GiB
Duration : 1 h 25 min
Overall bit rate : 2 436 kb/s
Writing application : VirtualDubMod 1.5.10.2 (build 2540/release)
Writing library : VirtualDubMod build 2540/release

Video
ID : 0
Format : MPEG-4 Visual
Format profile : Advanced Simple@L5
Format settings, BVOP : 1
Format settings, QPel : No
Format settings, GMC : No warppoints
Format settings, Matrix : Custom
Codec ID : XVID
Codec ID/Hint : XviD
Duration : 1 h 25 min
Bit rate : 1 782 kb/s
Width : 704 pixels
Height : 400 pixels
Display aspect ratio : 16:9
Frame rate : 23.976 (23976/1000) FPS
Color space : YUV
Chroma subsampling : 4:2:0
Bit depth : 8 bits
Scan type : Progressive
Compression mode : Lossy
Bits/(Pixel*Frame) : 0.264
Stream size : 1.06 GiB (73%)
Writing library : XviD 64

Audio #1
ID : 1
Format : AC-3
Format/Info : Audio Coding 3
Mode extension : CM (complete main)
Format settings, Endianness : Big
Codec ID : 2000
Duration : 1 h 25 min
Bit rate mode : Constant
Bit rate : 192 kb/s
Channel(s) : 2 channels
Channel positions : Front: L R
Sampling rate : 48.0 kHz
Frame rate : 31.250 FPS (1536 spf)
Compression mode : Lossy
Stream size : 117 MiB (8%)
Alignment : Split accross interleaves
Interleave, duration : 42 ms (1.00 video frame)
Interleave, preload duration : 500 ms

Audio #2
ID : 2
Format : AC-3
Format/Info : Audio Coding 3
Mode extension : CM (complete main)
Format settings, Endianness : Big
Codec ID : 2000
Duration : 1 h 25 min
Bit rate mode : Constant
Bit rate : 448 kb/s
Channel(s) : 6 channels
Channel positions : Front: L C R, Side: L R, LFE
Sampling rate : 48.0 kHz
Frame rate : 31.250 FPS (1536 spf)
Compression mode : Lossy
Stream size : 273 MiB (18%)
Alignment : Split accross interleaves
Interleave, duration : 42 ms (1.00 video frame)
Interleave, preload duration : 500 ms

Остановка скачать торрент

piratbit.org



Скачать Остановка через торрент http://pic1.kartinco.top/images/10/na12x.jpg Скачать фильм Остановка через торрент бесплантно в хорошем качестве Описание: Двое молодых людей во время поездке из Техаса в Калифорнию останавливаются передохнуть и сделать свои дела. Когда Николь ... 10 10 1
Торрент: Зарегистрирован [2016-07-15 09:24] · скачан: 38 раз
Статус: √ проверено
Размер: 1.45 GB
Как cкачать? Как скачать Остановка через торрент | UTorrent

% Раздел Тема Автор DL S | L
Фильмы 2006-2008 [ 1.45 GB ] Остановка 2: Не оглядывайся назад / Rest Stop: Don't Look Back [2008 BDRip DVO] Sудья Скачать
1 | 0

28-11-2019 20:33  

Отключить всю рекламу на сайте

    Дорогой пользователь! Огромная просьба, поблагодарите релизера, оцените раздачу и оставьте свои комментарий, если Вы скачали Остановка через торрент бесплатно! Внесите свою лепту в развитие PiratBit!
    Комментировать посты могут только пользователи прошедшие не сложную регистрацию
    Показать сообщения:    

    Остановка через торрент
    Скачать бесплатно Остановка
    Остановка скачать торрент
    Остановка смотреть онлайн
    Cкачать фильм Остановка бесплатно
    Остановка скачать торрент в хорошем качестве
    Остановка смотреть онлайн бесплатно в хорошем качестве


    Вы не можете начинать темы
    Вы не можете отвечать на сообщения
    Вы не можете редактировать свои сообщения
    Вы не можете удалять свои сообщения
    Вы не можете голосовать в опросах
    Вы не можете прикреплять файлы к сообщениям
    Вы можете скачивать файлы