1 сезон

3 сезон

iTunes

1

iTunes

DUB Netflix

iTunes

13

1 сезон

RePack

30

Deluxe

pack

Легкие деньги

ВАЖНО

ИГРА 18+

pack

RePack

MK11

RePack

jed

RePack

fifa19

RePack

RDR2

RePack

NEED FOR SPEED™ PAYBACK

4 сезон

9 сезон

Бесстыжие 9 сезон

Все сериалы

все сериалы на PB.wtf

RePack

FAR CRY 5

Anonymous, добрый день, мы не успеваем до 1 числа собрать деньги на оплату серверов, помогите нам пожалуйста в это трудное время. В качестве благодарности мы отключим Вам всю рекламу на сайте (укажите свой ник в строку Ваше имя)!

×
  
Magnet ссылка

Несмотря на падающий снег / Despite the Falling Snow (2016) HDRip / MVO piratbit.org

Несмотря на падающий снег через торрент piratbit.org

Размер: 1.37 GB | Добавлен: 4 года 11 мес. назад | Торрент скачан:67 раз
Скачать  

16-07-2016 09:46 Несмотря на падающий снег Скачать торрент  

Несмотря на падающий снег / Despite the Falling Snow

Страна: Великобритания Канада

Производство: Enlightenment Productions, SK Enlightenment

Год выпуска: 2016

Жанр: триллер, драма, мелодрама, детектив

Продолжительность: 01:33:04

Режиссер: Шамим Шариф

Автор сценария: Шамим Шариф

В ролях: Ребекка Фергюсон, Чарльз Дэнс, Антье Трауэ, Оливер Джексон-Коэн, Энтони Хэд, Эми Натталл, Сэм Рид, Туре Линдхардт

Описание: В Москве 50-х годов коммунистка Катя тайно шпионит для США в ходе гонки вооружений Холодной войны. Когда она получает свое важнейшее задание — кражу секретной информации у успешного кремлевского политика Александра, последнее, что она ожидает, это влюбиться в него. Примирение ее страсти к нему с ее убеждениями относительно коммунизма становится величайшей жертвой всей ее жизни — жертвой, которая откроется Александру только спустя тридцать лет...



Перевод: Любительский (многоголосый, закадровый)

Субтитры: нет
Качество: HDRip

Формат: АVI

Видео кодек: XviD

Аудио кодек: АС3

Видео: 720x384 (1.85:1), 24.000 fps, XviD ~1 341 kbps avg

Аудио: 48.0 kHz, AC3 Dolby Digital, 2/0 (L,R) ch, ~384 kbps

Дата премьеры (мир): 29 января 2016

ПРИМЕЧАНИЕ: ПРИСУТСТВУЕТ РЕКЛАМА!
General

Format : AVI

Format/Info : Audio Video Interleave

File size : 8.92 MiB

Overall bit rate : 1 708 Kbps

Movie name : HeCm0tP1a.Ha.CHeg.2O16.P.HDRip.14OOMB

Writing application : VirtualDubMod 1.5.10.3 | (build 2550/release)

Writing library : VirtualDubMod build 2550/release

Original source form/Name : Movie

Video

ID : 0

Format : MPEG-4 Visual

Format profile : Advanced Simple@L5

Format settings, BVOP : 2

Format settings, QPel : No

Format settings, GMC : No warppoints

Format settings, Matrix : Custom

Codec ID : XVID

Codec ID/Hint : XviD

Bit rate : 946 Kbps

Width : 720 pixels

Height : 384 pixels

Display aspect ratio : 1.85:1

Frame rate : 24.000 fps

Color space : YUV

Chroma subsampling : 4:2:0

Bit depth : 8 bits

Scan type : Progressive

Compression mode : Lossy

Bits/(Pixel*Frame) : 0.143

Stream size : 6.30 MiB (71%)

Writing library : XviD 1.2.1 (UTC 2008-12-04)

Audio

ID : 1

Format : AC-3

Format/Info : Audio Coding 3

Mode extension : CM (complete main)

Format settings, Endianness : Big

Codec ID : 2000

Bit rate mode : Constant

Bit rate : 384 Kbps

Channel(s) : 2 channels

Channel positions : Front: L R

Sampling rate : 48.0 KHz

Compression mode : Lossy

Stream size : 2.56 MiB (29%)

Alignment : Split accross interleaves

Interleave, duration : 42 ms (1.01 video frame)

Interleave, preload duration : 500 ms
piratbit.org



Скачать Несмотря на падающий снег через торрент http://img10.lostpic.net/2016/05/31/3a1b8892846b561a9803295a82671304.png Скачать фильм Несмотря на падающий снег через торрент бесплантно в хорошем качестве Описание: В Москве 50-х годов коммунистка Катя тайно шпионит для США в ходе гонки вооружений Холодной войны. Когда она получает свое ... 9.5 10 2
Торрент: Зарегистрирован [2016-07-16 09:46] · скачан: 67 раз
Статус: T временная
Размер: 1.37 GB
Как cкачать? Как скачать Несмотря на падающий снег через торрент | UTorrent

28-11-2019 20:33  

Отключить всю рекламу на сайте

    Дорогой пользователь! Огромная просьба, поблагодарите релизера, оцените раздачу и оставьте свои комментарий, если Вы скачали Несмотря на падающий снег через торрент бесплатно! Внесите свою лепту в развитие PiratBit!
    Комментировать посты могут только пользователи прошедшие не сложную регистрацию
    Показать сообщения:    

    Несмотря на падающий снег через торрент
    Скачать бесплатно Несмотря на падающий снег
    Несмотря на падающий снег скачать торрент
    Несмотря на падающий снег смотреть онлайн
    Cкачать фильм Несмотря на падающий снег бесплатно
    Несмотря на падающий снег скачать торрент в хорошем качестве
    Несмотря на падающий снег смотреть онлайн бесплатно в хорошем качестве


    Вы не можете начинать темы
    Вы не можете отвечать на сообщения
    Вы не можете редактировать свои сообщения
    Вы не можете удалять свои сообщения
    Вы не можете голосовать в опросах
    Вы не можете прикреплять файлы к сообщениям
    Вы можете скачивать файлы