Ссылка на приватное зеркало нашего сайта всего за 1$. Внимание количество ограничено!!!

2 сезон

iTunes

iTunes

1

iTunes

iTunes

iTunes

WEBRip

iTunes

30
pack

Вам бонус

ВАЖНО

!!Акция!!

Alien_RageХит недели

RePack

Horizon Zero Dawn

ИГРА 18+

pack

RePack

jed

!!Акция!!

Alien_Rage

RePack

fifa19

RePack

Assassins Creed: Odyssey

RePack

NEED FOR SPEED™ PAYBACK

4 сезон

9 сезон

Бесстыжие 9 сезон

Все сериалы

все сериалы на PB.wtf

RePack

FAR CRY 5
  

Райский проект / Проект Лазарь / The Lazarus Project (Джон Гленн) [2008, Триллер, драма, детектив, HDRip] [MVO] (СВ-Дубль) + 2x[AVO] (В.Горчаков, С.Визгунов) piratbit.org

Райский проект через торрент piratbit.org

Размер: 2.3 GB | Добавлен: 4 года 2 мес. назад | Торрент скачан:105 раз
Скачать  

16-07-2016 19:09 Райский проект Скачать торрент  

Райский проект / Проект Лазарь / The Lazarus Project
«От реальности нет спасения»

Год выпуска: 2008
Страна: США, Канада, Великобритания
Жанр: Триллер, драма, детектив
Продолжительность: 01:39:46
Перевод 1: Профессиональный (многоголосый закадровый) СВ-Дубль
Перевод 2: Авторский (одноголосый закадровый) Василий Горчаков
Перевод 3: Авторский (одноголосый закадровый) Сергей Визгунов
Cубтитры: русские, английские

Оригинальная аудиодорожка: английский

Режиссер: Джон Гленн / John Glenn

В ролях: Пол Уокер, Пайпер Перабо, Бруклин Пру, Боб Гантон, Ламбер Вильсон, Линда Карделлини, Тони Карран, Малкольм Гудвин, Росс МакМиллан, Аарон Хьюз, Шон Хэтоси, Алекс Сол, Трэйси Н. Смит, Фрэнк Эдамсон, Ли Эннс, Сьюзэн Келсо, Ти Вуд, Лиза Дурупт, Джессика Бёрлсон, Майк О’Брайэн, Онали Эймс, Дэн Скин

Описание: Триллер о человеке, который потерял всё то, что любил, и, чтобы вернуть назад свою семью и вернуться к нормальной жизни, ему придётся встретиться лицом к лицу с мистическими явлениями, пройти бесчисленное количество испытаний собственной веры, тронуться рассудком и изучить самые тёмные уголки своей души.



Автор рипа: Sem-te
Релиз от:
Исходник: The.Lazarus.Project.2008.BDRip.(1080p)
Качество видео: HDRip
Формат видео: AVI
Видео: 720x304 (2.37:1), 23.976 fps, XviD build 73 ~1880 kbps avg, 0.36 bit/pixel
Аудио 1: 48 kHz, AC3 Dolby Digital, 2/0 (L,R) ch, ~192 kbps | СВ-Дубль
Аудио 2: 48 kHz, AC3 Dolby Digital, 3/2 (L,C,R,l,r) + LFE ch, ~384.00 kbps avg | Василий Горчаков (отдельно)
Аудио 3: 48 kHz, AC3 Dolby Digital, 3/2 (L,C,R,l,r) + LFE ch, ~384.00 kbps avg | Сергей Визгунов (отдельно)
Аудио 4: 48 kHz, AC3 Dolby Digital, 3/2 (L,C,R,l,r) + LFE ch, ~448.00 kbps avg | Original Eng (отдельно)
Доп. информация: За перевод СВ-Дубль спасибо Sem-te, за синхронизацию перевода огромное спасибо *Sergeant_am*. За авторские переводы большое спасибо whalekilla и за предоставленные русские субтитры спасибо Дэн 107miller.
General
Format : AVI
Format/Info : Audio Video Interleave
File size : 1.45 GiB
Duration : 1h 39mn
Overall bit rate : 2 082 Kbps
Writing application : VirtualDubMod 1.5.10.3 | www.virtualdub-fr.org || (build 2550/release)
Writing library : VirtualDubMod build 2550/release
Video
ID : 0
Format : MPEG-4 Visual
Format profile : Advanced Simple@L5
Format settings, BVOP : 1
Format settings, QPel : No
Format settings, GMC : No warppoints
Format settings, Matrix : Custom
Codec ID : XVID
Codec ID/Hint : XviD
Duration : 1h 39mn
Bit rate : 1 880 Kbps
Width : 720 pixels
Height : 304 pixels
Display aspect ratio : 2.35:1
Frame rate : 23.976 fps
Color space : YUV
Chroma subsampling : 4:2:0
Bit depth : 8 bits
Scan type : Progressive
Compression mode : Lossy
Bits/(Pixel*Frame) : 0.358
Stream size : 1.31 GiB (90%)
Writing library : XviD 73
Audio
ID : 1
Format : AC-3
Format/Info : Audio Coding 3
Mode extension : CM (complete main)
Format settings, Endianness : Big
Codec ID : 2000
Duration : 1h 39mn
Bit rate mode : Constant
Bit rate : 192 Kbps
Channel(s) : 2 channels
Channel positions : Front: L R
Sampling rate : 48.0 KHz
Bit depth : 16 bits
Compression mode : Lossy
Stream size : 137 MiB (9%)
Alignment : Split accross interleaves
Interleave, duration : 42 ms (1.00 video frame)
Interleave, preload duration : 500 ms
piratbit.org



Скачать Райский проект через торрент http://i77.fastpic.ru/big/2016/0716/5c/a9355711f3bbc0250f1c2adf483c045c.jpg Скачать фильм Райский проект через торрент бесплантно в хорошем качестве Описание: Триллер о человеке, который потерял всё то, что любил, и, чтобы вернуть назад свою семью и вернуться к нормальной жизни, ему ... 10 10 2
Торрент: Зарегистрирован [2016-07-16 19:09] · скачан: 105 раз
Статус: √ проверено
Размер: 2.3 GB
Как cкачать? Как скачать Райский проект через торрент | qTorrent

28-11-2019 20:33  

Отключить всю рекламу на сайте

17-07-2016 04:31 Райский проект Скачать торрент  

Спасибо обязательно посмотрю) piratbit.org



    Дорогой пользователь! Огромная просьба, поблагодарите релизера, оцените раздачу и оставьте свои комментарий, если Вы скачали Райский проект через торрент бесплатно! Внесите свою лепту в развитие PiratBit!
    Комментировать посты могут только пользователи прошедшие не сложную регистрацию
    Показать сообщения:    

    Райский проект через торрент
    Скачать бесплатно Райский проект
    Райский проект скачать торрент
    Райский проект смотреть онлайн
    Cкачать фильм Райский проект бесплатно
    Райский проект скачать торрент в хорошем качестве
    Райский проект смотреть онлайн бесплатно в хорошем качестве


    Вы не можете начинать темы
    Вы не можете отвечать на сообщения
    Вы не можете редактировать свои сообщения
    Вы не можете удалять свои сообщения
    Вы не можете голосовать в опросах
    Вы не можете прикреплять файлы к сообщениям
    Вы можете скачивать файлы