1 сезон

3 сезон

iTunes

1

iTunes

DUB Netflix

iTunes

13

1 сезон

RePack

30

Deluxe

pack

Легкие деньги

ВАЖНО

ИГРА 18+

pack

RePack

MK11

RePack

jed

RePack

fifa19

RePack

RDR2

RePack

NEED FOR SPEED™ PAYBACK

4 сезон

9 сезон

Бесстыжие 9 сезон

Все сериалы

все сериалы на PB.wtf

RePack

FAR CRY 5

Anonymous, добрый день, мы не успеваем до 1 числа собрать деньги на оплату серверов, помогите нам пожалуйста в это трудное время. В качестве благодарности мы отключим Вам всю рекламу на сайте (укажите свой ник в строку Ваше имя)!

×
  
Magnet ссылка

Сделано во Франции / Made in France (Николас Бухриф) [2015, триллер, драма, криминал, HDRip] MVO piratbit.org

Сделано во Франции через торрент piratbit.org

Размер: 1.37 GB | Добавлен: 4 года 11 мес. назад | Торрент скачан:281 раз
Скачать  

18-07-2016 13:33 Сделано во Франции Скачать торрент  

Сделано во Франции / Made in FranceГод выпуска: 2015
Страна: Франция
Жанр: триллер, драма, криминал
Продолжительность: 89 мин. / 01:29
Перевод: Любительский (многоголосый)(СПД)
Субтитры: Отсутствуют

Режиссер: Николас Бухриф
Продюссер: Клементе Мисерез, Маттье Вартер, Джеймс Велайс
Сценарий: Эрик Беснард, Николас Бухриф

Премьера в мире: 4 октября 2015

лицам до 17 лет обязательно присутствие взрослого
http://www.imdb.com/title/tt4601102/



В ролях: Малик Зиди, Дмитрий Сторож, Франсуа Сивиль, Нассим Си Ахмед, Ахмед Драме, Николас Грэндхомм, Ассаад Буаб, М. Уджай

Описание: Сэм, независимый журналист, решает воспользоваться своей принадлежностью к мусульманской культуре с целью внедрения в группировку исламских фундаменталистов, обосновавшихся в окрестностях Парижа. Он сближается с четырьмя молодыми людьми, которым было поручено создать ячейку джихадистов и ждать сигнала к активным действиям...

Доп. информация: ПРИСУТСТВУЕТ РЕКЛАМА!

Качество: HDRip
Формат: AVI
Видео кодек: XviD
Аудио кодек: AC3
Видео: 720x304 (2.37:1), 24 fps, XviD build 50 ~1715 kbps avg, 0.33 bit/pixel
Аудио#1: 48 kHz, AC3 Dolby Digital, 2/0 (L,R) ch, ~384 kbps
Сэмпл
скриншот  скриншот  скриншот  скриншот  скриншот  





General
Complete name : C:\Users\ghdf\Desktop\Made.In.France.2015.P.HDRip.avi
Format : AVI
Format/Info : Audio Video Interleave
File size : 1.37 GiB
Duration : 1h 32mn
Overall bit rate : 2 109 Kbps
Writing application : VirtualDubMod 1.5.10.2 (build 2540/release)
Writing library : VirtualDubMod build 2540/release

Video
ID : 0
Format : MPEG-4 Visual
Format profile : Advanced Simple@L5
Format settings, BVOP : 2
Format settings, QPel : No
Format settings, GMC : No warppoints
Format settings, Matrix : Custom
Codec ID : XVID
Codec ID/Hint : XviD
Duration : 1h 32mn
Bit rate : 1 716 Kbps
Width : 720 pixels
Height : 304 pixels
Display aspect ratio : 2.35:1
Frame rate : 24.000 fps
Color space : YUV
Chroma subsampling : 4:2:0
Bit depth : 8 bits
Scan type : Progressive
Compression mode : Lossy
Bits/(Pixel*Frame) : 0.327
Stream size : 1.11 GiB (81%)
Writing library : XviD 1.2.1 (UTC 2008-12-04)

Audio
ID : 1
Format : AC-3
Format/Info : Audio Coding 3
Mode extension : CM (complete main)
Format settings, Endianness : Big
Codec ID : 2000
Duration : 1h 32mn
Bit rate mode : Constant
Bit rate : 384 Kbps
Channel count : 2 channels
Channel positions : Front: L R
Sampling rate : 48.0 KHz
Bit depth : 16 bits
Compression mode : Lossy
Stream size : 255 MiB (18%)
Alignment : Split accross interleaves
Interleave, duration : 42 ms (1.00 video frame)
Interleave, preload duration : 500 ms

piratbit.org



Скачать Сделано во Франции через торрент http://picsee.net/upload/2016-07-17/8870faee5c96.jpg Скачать фильм Сделано во Франции через торрент бесплантно в хорошем качестве Описание: Сэм, независимый журналист, решает воспользоваться своей принадлежностью к мусульманской культуре с целью внедрения в группировку ... 8.9 10 14
Info! Золотая раздача, скачанное не засчитывается.
Торрент: Зарегистрирован [2016-07-18 13:33] · скачан: 281 раз
Статус: T временная
Размер: 1.37 GB
Как cкачать? Как скачать Сделано во Франции через торрент | UTorrent

28-11-2019 20:33  

Отключить всю рекламу на сайте


19-07-2016 23:51 Сделано во Франции Скачать торрент  

Товарищи как фильм?piratbit.org



    Дорогой пользователь! Огромная просьба, поблагодарите релизера, оцените раздачу и оставьте свои комментарий, если Вы скачали Сделано во Франции через торрент бесплатно! Внесите свою лепту в развитие PiratBit!
    Комментировать посты могут только пользователи прошедшие не сложную регистрацию
    Показать сообщения:    

    Сделано во Франции через торрент
    Скачать бесплатно Сделано во Франции
    Сделано во Франции скачать торрент
    Сделано во Франции смотреть онлайн
    Cкачать фильм Сделано во Франции бесплатно
    Сделано во Франции скачать торрент в хорошем качестве
    Сделано во Франции смотреть онлайн бесплатно в хорошем качестве


    Вы не можете начинать темы
    Вы не можете отвечать на сообщения
    Вы не можете редактировать свои сообщения
    Вы не можете удалять свои сообщения
    Вы не можете голосовать в опросах
    Вы не можете прикреплять файлы к сообщениям
    Вы можете скачивать файлы