1 сезон

3 сезон

iTunes

1

iTunes

DUB Netflix

iTunes

13

1 сезон

RePack

30

Deluxe

pack

Легкие деньги

ВАЖНО

ИГРА 18+

pack

RePack

MK11

RePack

jed

RePack

fifa19

RePack

RDR2

RePack

NEED FOR SPEED™ PAYBACK

4 сезон

9 сезон

Бесстыжие 9 сезон

Все сериалы

все сериалы на PB.wtf

RePack

FAR CRY 5

Anonymous, добрый вечер, мы не успеваем до 1 числа собрать деньги на оплату серверов, помогите нам пожалуйста в это трудное время. В качестве благодарности мы отключим Вам всю рекламу на сайте (укажите свой ник в строку Ваше имя)!

×
  
Magnet ссылка

Основные принципы добра / The Fundamentals of Caring (Роб Барнетт) [2016 г., драма, WEB-DLRip, Любительский (многоголосый)(СПД) piratbit.org

Основные принципы добра через торрент piratbit.org

Размер: 1.37 GB | Добавлен: 4 года 11 мес. назад | Торрент скачан:205 раз
Скачать  

18-07-2016 14:35 Основные принципы добра Скачать торрент  

Основные принципы добра / The Fundamentals of Caring Год выпуска: 2016
Страна: США
Жанр: драма
Продолжительность: 93 мин. / 01:37:30
Перевод: Любительский (многоголосый)(СПД)
Субтитры: Отсутствуют

Режиссер: Роб Барнетт
Продюссер: Роб Барнетт
Сценарий: Роб Барнетт, Jonathan Evison

Премьера в мире: 29 января 2016

ПРИМЕЧАНИЕ Присутствует Реклама!

лицам до 17 лет обязательно присутствие взрослого

http://www.imdb.com/title/tt2452386/



В ролях: Крэйг Робертс, Пол Радд, Селена Гомес, Дженнифер Или, Меган Фергюсон

Описание: Писатель, переживающий творческий и личностный кризис, устраивается работать сиделкой к юноше с редким генетическим заболеванием (которое, про должном уходе, не мешает ему вести вполне полноценную жизнь). Сначала они ненавидят друг друга, потом находят общий язык. А в итоге становятся лучшими друзьями и отправляются в путешествие по стране. В пути к ним присоединяется сбежавшая из дома девица. Для каждого эта поездка станет шагом на пути к познанию самого себя...

Качество: WEB-DLRip
Формат: AVI
Видео кодек: AVC
Аудио кодек: AC3
Видео: 720x304 (2.37:1), 23.976 fps, XviD build 50 ~1613 kbps avg, 0.31 bit/pixel
Аудио#1: 48 kHz, AC3 Dolby Digital, 2/0 (L,R) ch, ~384 kbps
скриншот  скриншот  скриншот  





General
Complete name : C:\Users\ghdf\Desktop\The.Fundamentals.of.Caring.2016.P.WEB-DLRip.14OOMB.avi
Format : AVI
Format/Info : Audio Video Interleave
File size : 1.37 GiB
Duration : 1h 37mn
Overall bit rate : 2 007 Kbps
Writing application : VirtualDubMod 1.5.10.2 (build 2540/release)
Writing library : VirtualDubMod build 2540/release

Video
ID : 0
Format : MPEG-4 Visual
Format profile : Advanced Simple@L5
Format settings, BVOP : 2
Format settings, QPel : No
Format settings, GMC : No warppoints
Format settings, Matrix : Custom
Codec ID : XVID
Codec ID/Hint : XviD
Duration : 1h 37mn
Bit rate : 1 614 Kbps
Width : 720 pixels
Height : 304 pixels
Display aspect ratio : 2.35:1
Frame rate : 23.976 fps
Color space : YUV
Chroma subsampling : 4:2:0
Bit depth : 8 bits
Scan type : Progressive
Compression mode : Lossy
Bits/(Pixel*Frame) : 0.307
Stream size : 1.10 GiB (80%)
Writing library : XviD 1.2.1 (UTC 2008-12-04)

Audio
ID : 1
Format : AC-3
Format/Info : Audio Coding 3
Mode extension : CM (complete main)
Format settings, Endianness : Big
Codec ID : 2000
Duration : 1h 37mn
Bit rate mode : Constant
Bit rate : 384 Kbps
Channel count : 2 channels
Channel positions : Front: L R
Sampling rate : 48.0 KHz
Bit depth : 16 bits
Compression mode : Lossy
Stream size : 268 MiB (19%)
Alignment : Split accross interleaves
Interleave, duration : 42 ms (1.00 video frame)
Interleave, preload duration : 500 ms

piratbit.org



Скачать Основные принципы добра через торрент http://picplus.ru/img/1607/05/24a90311.jpg Скачать фильм Основные принципы добра через торрент бесплантно в хорошем качестве Описание: Писатель, переживающий творческий и личностный кризис, устраивается работать сиделкой к юноше с редким генетическим заболеванием ... 8.2 10 5
Торрент: Зарегистрирован [2016-07-18 14:35] · скачан: 205 раз
Статус: T временная
Размер: 1.37 GB
Как cкачать? Как скачать Основные принципы добра через торрент | UTorrent



Последний раз редактировалось: sanekbest1 (2016-07-18 15:39), всего редактировалось 1 раз

28-11-2019 20:33  

Отключить всю рекламу на сайте


18-07-2016 15:21 Основные принципы добра Скачать торрент  

sanekbest1, добавте сэмпл

Цитата:

Длительность: 93 мин. / 01:33

1h 37mnpiratbit.org



18-07-2016 15:40 Основные принципы добра Скачать торрент  

schultz, Готово Отец))))по поводу длительности фильма,я так понял из за рекламы прибавилось время?ну как бы то ни было,все исправленоpiratbit.org



18-07-2016 15:53 Основные принципы добра Скачать торрент  

sanekbest1 писал(а):

schultz, Готово Отец))))по поводу длительности фильма,я так понял из за рекламы прибавилось время?ну как бы то ни было,все исправлено

нет, это кинопоиск косячитpiratbit.org



    Дорогой пользователь! Огромная просьба, поблагодарите релизера, оцените раздачу и оставьте свои комментарий, если Вы скачали Основные принципы добра через торрент бесплатно! Внесите свою лепту в развитие PiratBit!
    Комментировать посты могут только пользователи прошедшие не сложную регистрацию
    Показать сообщения:    

    Основные принципы добра через торрент
    Скачать бесплатно Основные принципы добра
    Основные принципы добра скачать торрент
    Основные принципы добра смотреть онлайн
    Cкачать фильм Основные принципы добра бесплатно
    Основные принципы добра скачать торрент в хорошем качестве
    Основные принципы добра смотреть онлайн бесплатно в хорошем качестве


    Вы не можете начинать темы
    Вы не можете отвечать на сообщения
    Вы не можете редактировать свои сообщения
    Вы не можете удалять свои сообщения
    Вы не можете голосовать в опросах
    Вы не можете прикреплять файлы к сообщениям
    Вы можете скачивать файлы