1 сезон

3 сезон

iTunes

1

iTunes

DUB Netflix

iTunes

13

1 сезон

RePack

30

Deluxe

pack

Легкие деньги

ВАЖНО

ИГРА 18+

pack

RePack

MK11

RePack

jed

RePack

fifa19

RePack

RDR2

RePack

NEED FOR SPEED™ PAYBACK

4 сезон

9 сезон

Бесстыжие 9 сезон

Все сериалы

все сериалы на PB.wtf

RePack

FAR CRY 5

Anonymous, добрый вечер, мы не успеваем до 1 числа собрать деньги на оплату серверов, помогите нам пожалуйста в это трудное время. В качестве благодарности мы отключим Вам всю рекламу на сайте (укажите свой ник в строку Ваше имя)!

×
  
Magnet ссылка

Большой Босс / The Boss (Бен Фэлкоун) [2016 г., комедия, HDRip, Дубляж "iTunes"] piratbit.org

Большой Босс через торрент piratbit.org

Размер: 710 MB | Добавлен: 4 года 11 мес. назад | Торрент скачан:141 раз
Скачать  

18-07-2016 18:03 Большой Босс Скачать торрент  

Большой Босс / The Boss
Год выпуска: 2016
Страна: США ./ Gary Sanchez Productions, On the Day, Universal Pictures
Жанр: комедия
Продолжительность: 01:38:48
Перевод: Дубляж (iTunes)

Режиссер: Бен Фэлкоун

IMDB 5.30 (13 021)


В ролях: Мелисса МакКарти, Кристен Белл, Питер Динклэйдж, Элла Андерсон, Тайлер Лабин, Кэти Бейтс, Сесили Стронг, Мэри Сон, Кристен Шаал, Эва Питерсон, Анастасия Лапина, Вероника Саркисова, Сергей Чихачев, Василиса Эльдарова, Даниил Эльдаров

Описание: В центре сюжета бизнес-леди, промышленный магнат, очутившаяся в тюрьме, погорев на теневых сделках. Отсидев положенное, женщина мечтает искупить вину и сменить статус мошенницы на всеобщую любимицу, только не все жертвы ее махинаций готовы пересмотреть свое отношение к ней.

Качество: HDRip
Формат: AVI
Видео кодек: XviD
Аудио кодек: MP3
Видео: MPEG4, XviD, 640x344 (1.860), 23.976 fps, 867 Kbps (0.164 bit/pixel)
Аудио: MP3, 48.0 KHz, 2 ch, 128 Kbps, CBR

Общее
Полное имя : F:\кино\Большой Босс.2016.D.HDRip.700mb.avi
Формат : AVI
Формат/Информация : Audio Video Interleave
Размер файла : 710 Мбайт
Продолжительность : 1 ч. 38 м.
Общий поток : 1005 Кбит/сек
Программа кодирования : VirtualDubMod 1.5.10.3 | www.virtualdub-fr.org || (build 2550/release)
Библиотека кодирования : VirtualDubMod build 2550/release

Видео
Идентификатор : 0
Формат : MPEG-4 Visual
Профиль формата : Advanced Simple@L5
Параметр BVOP формата : 1
Параметр QPel формата : Нет
Параметр GMC формата : Без точки перехода
Параметр матрицы формата : Default (H.263)
Идентификатор кодека : XVID
Идентификатор кодека/Подсказка : XviD
Продолжительность : 1 ч. 38 м.
Битрейт : 867 Кбит/сек
Ширина : 640 пикселей
Высота : 344 пикселя
Соотношение сторон : 1,85:1
Частота кадров : 23,976 (23976/1000) кадра/сек
Цветовое пространство : YUV
Субдискретизация насыщенности : 4:2:0
Битовая глубина : 8 бит
Тип развёртки : Прогрессивная
Метод сжатия : С потерями
Бит/(Пиксели*Кадры) : 0.164
Размер потока : 613 Мбайт (86%)
Библиотека кодирования : XviD 1.2.1 (UTC 2008-12-04)

Аудио
Идентификатор : 1
Формат : MPEG Audio
Версия формата : Version 1
Профиль формата : Layer 3
Режим : Joint stereo
Идентификатор кодека : 55
Идентификатор кодека/Подсказка : MP3
Продолжительность : 1 ч. 38 м.
Вид битрейта : Постоянный
Битрейт : 128 Кбит/сек
Каналы : 2 канала
Частота : 48,0 КГц
Метод сжатия : С потерями
Размер потока : 90,5 Мбайт (13%)
Выравнивание : Соединение по промежуткам
Продолжительность промежутка : 42 мс. (1,00 видеокадр)
Время предзагрузки промежутка : 504 мс.
Библиотека кодирования : LAME3.99r
Настройки программы : -m j -V 4 -q 2 -lowpass 17 -b 128

piratbit.org



Скачать Большой Босс через торрент https://pic.kartinco.top/images/11/c4gur.jpg Скачать фильм Большой Босс через торрент бесплантно в хорошем качестве Описание: В центре сюжета бизнес-леди, промышленный магнат, очутившаяся в тюрьме, погорев на теневых сделках. Отсидев положенное, женщина ... 7 10 3
Торрент: Зарегистрирован [2016-07-18 18:03] · скачан: 141 раз
Статус: √ проверено
Размер: 710 MB
Как cкачать? Как скачать Большой Босс через торрент | UTorrent

% Раздел Тема Автор DL S | L
Азиатские фильмы [ 3.7 GB ] Большой босс / Tang shan da xiong [1971 HDRip-HEVC 10bit ] ADVOKAT69 Скачать
1 | 0
Фильмы 2016 [DVDrip, WEB-DLRip, HDrip] (DUB, MVO) [ 1.46 GB ] Большой Босс / The Boss [2016 BDRip-AVC от sokol_ok] [Театральная версия] sokol_ok Скачать
2 | 0
Фильмы 2016 [DVDrip, WEB-DLRip, HDrip] (DUB, MVO) [ 1.46 GB ] Большой Босс / The Boss [2016 BDRip] DUB Twi7ter Скачать
1 | 0
Фильмы 2016 [DVDrip, WEB-DLRip, HDrip] (DUB, MVO) [ 2.18 GB ] Большой Босс / The Boss [2016 BDRip-AVC от sokol_ok] [Театральная версия] sokol_ok Скачать
2 | 0
Фильмы 2016 [DVDrip, WEB-DLRip, HDrip] (DUB, MVO) [ 746 MB ] Большой Босс / The Boss [2016 BDRip-AVC от sokol_ok] [Театральная версия] sokol_ok Скачать
2 | 0
Фильмы (Blu-ray, BD-Remux, HDDVD) [ 25.31 GB ] Большой Босс / The Boss [2016 Blu-ray Remux 1080р [] smaster Скачать
1 | 0
Фильмы без перевода [ 25.73 GB ] Большой Босс / The Boss [2016 BD Remux [Оригинал] smaster Скачать
1 | 0

28-11-2019 20:33  

Отключить всю рекламу на сайте

    Дорогой пользователь! Огромная просьба, поблагодарите релизера, оцените раздачу и оставьте свои комментарий, если Вы скачали Большой Босс через торрент бесплатно! Внесите свою лепту в развитие PiratBit!
    Комментировать посты могут только пользователи прошедшие не сложную регистрацию
    Показать сообщения:    

    Большой Босс через торрент
    Скачать бесплатно Большой Босс
    Большой Босс скачать торрент
    Большой Босс смотреть онлайн
    Cкачать фильм Большой Босс бесплатно
    Большой Босс скачать торрент в хорошем качестве
    Большой Босс смотреть онлайн бесплатно в хорошем качестве


    Вы не можете начинать темы
    Вы не можете отвечать на сообщения
    Вы не можете редактировать свои сообщения
    Вы не можете удалять свои сообщения
    Вы не можете голосовать в опросах
    Вы не можете прикреплять файлы к сообщениям
    Вы можете скачивать файлы