Лицензия

MVO

1

1 сезон

Лицензия

Лицензия

13

MVO

1 сезон

Deluxe Edition

pack

Рекомендуем

30

Repack

ВАЖНО

ВАЖНО

Ghostwire

RePack

jed

RePack

fifa19

RePack

RDR2

RePack

NEED FOR SPEED™ PAYBACK

RePack

Кинопоиск HD

 Острые козырьки 6 сезон

6 сезон

FAR CRY 6

RePack

Лицензия

MVO

1

1 сезон

1 сезон

Лицензия

  

Нестерка (Александр Зархи) [1955, СССР, приключения, комедия, DVDRip-AVC от AVP Studio]

Нестерка через торрент piratbit.org

Размер: 1.46 GB | Добавлен: 6 лет 2 мес. назад | Торрент скачан:24 раза
Смотреть онлайн Нестерка | Скачать   

19-07-2016 08:37 Нестерка Скачать торрент  

Нестерка
Страна: СССР
Производство: Беларусьфильм

Жанр: приключения, комедия
Год выпуска: 1955
Продолжительность: 01:28:15

Перевод: Не требуется
Cубтитры: русский
Оригинальная аудиодорожка: русский

Режиссер: Александр Зархи

В ролях:
Борис Тенин, Евгений Полосин, Вера Полло, Лилия Дроздова, Иван Савкин, Эраст Гарин, Георгий Бударов, Глеб Глебов, Владимир Дедюшко, Алексей Барановский, Пётр Репнин, В. Васильев, Николай Блащук, Григорий Лойко, Павел Панёв, В. Кувшинов (II), Николай Яковченко, Нина Зарипова...
Полный список актёров

Описание:
Самым ярким и любимым героем белорусского народного фольклора является Нестерка, который дурил панов и защищал бедняков.
Этот фильм о веселых приключениях бедняка Нестерки (Борис Тенин), белорусского Ходжи Насреддина, обладающего неистребимым оптимизмом, умом и смекалкой. Нестерка скитается по родному краю, никогда не унывает и всегда готов прийти на помощь бедному люду.

Источник: DVD5 R5
Качество видео: DVDRip-AVC
Формат видео: MKV

Видео: 712->752x564 (4:3), 25 fps, H264 ~ 2172 kbps avg, 0.216 bit/pixel
Аудио: 48 kHz, Dolby Digital AC3 2.0, 192 kbps

Раздача от:
Общее
Полное имя : Nesterka.1955.DVDRip-AVC_[New-team]_by_AVP_Studio.mkv
Формат : Matroska
Версия формата : Version 2
Размер файла : 1,46 Гбайт
Продолжительность : 1 ч. 28 м.
Общий поток : 2366 Кбит/сек
Дата кодирования : UTC 2016-07-13 11:47:34
Программа кодирования : mkvmerge v6.1.0 ('Old Devil') built on Mar 4 2013 09:10:42
Библиотека кодирования : libebml v1.3.0 + libmatroska v1.4.0

Видео
Идентификатор : 1
Формат : AVC
Формат/Информация : Advanced Video Codec
Профиль формата : High@L4.1
Параметр CABAC формата : Да
Параметр ReFrames формата : 10 кадров
Идентификатор кодека : V_MPEG4/ISO/AVC
Продолжительность : 1 ч. 28 м.
Битрейт : 2172 Кбит/сек
Ширина : 712 пикселей
Высота : 564 пикселя
Соотношение сторон : 4:3
Режим частоты кадров : Постоянный
Частота кадров : 25,000 кадров/сек
Цветовое пространство : YUV
Субдискретизация насыщенности : 4:2:0
Битовая глубина : 8 бит
Тип развёртки : Прогрессивная
Бит/(Пиксели*Кадры) : 0.216
Размер потока : 1,31 Гбайт (90%)
Библиотека кодирования : x264 core 148 r2597 e86f3a1
Настройки программы : cabac=1 / ref=10 / deblock=1:-2:-1 / analyse=0x3:0x113 / me=umh / subme=10 / psy=1 / psy_rd=1.00:0.00 / mixed_ref=1 / me_range=32 / chroma_me=1 / trellis=2 / 8x8dct=1 / cqm=0 / deadzone=21,11 / fast_pskip=1 / chroma_qp_offset=-2 / threads=6 / lookahead_threads=1 / sliced_threads=0 / nr=0 / decimate=0 / interlaced=0 / bluray_compat=0 / constrained_intra=0 / bframes=8 / b_pyramid=2 / b_adapt=2 / b_bias=0 / direct=3 / weightb=1 / open_gop=0 / weightp=2 / keyint=250 / keyint_min=25 / scenecut=40 / intra_refresh=0 / rc=2pass / mbtree=0 / bitrate=2172 / ratetol=1.0 / qcomp=0.60 / qpmin=0 / qpmax=69 / qpstep=4 / cplxblur=20.0 / qblur=0.5 / ip_ratio=1.40 / pb_ratio=1.30 / aq=1:1.00
Default : Да
Forced : Нет

Аудио
Идентификатор : 2
Формат : AC-3
Формат/Информация : Audio Coding 3
Расширение режима : CM (complete main)
Параметр Endianness формата : Big
Идентификатор кодека : A_AC3
Продолжительность : 1 ч. 28 м.
Вид битрейта : Постоянный
Битрейт : 192 Кбит/сек
Каналы : 2 канала
Расположение каналов : Front: L R
Частота : 48,0 КГц
Частота кадров : 31,250 кадров/сек (1536 spf)
Метод сжатия : С потерями
Размер потока : 121 Мбайт (8%)
Default : Да
Forced : Нет



Скачать Нестерка через торрент http://s017.radikal.ru/i411/1607/de/b86225e73b47.png Скачать, смотреть онлайн Нестерка бесплантно в хорошем качестве Описание:Самым ярким и любимым героем белорусского народного фольклора является Нестерка, который дурил панов и защищал бедняков.Этот фильм ... 10 10 2
Info! Золотая раздача, скачанное не засчитывается.
Торрент: Зарегистрирован [2016-07-19 08:37] · скачан: 24 раз
Статус: √ проверено
Размер: 1.46 GB
Как cкачать? Как скачать Нестерка через торрент | UTorrent

% Раздел Тема Автор DL S | L
Кино СССР [ 745 MB ] Нестерка | | DVDRip от AVP Studio AVP Studio Скачать
1 | 0
Кино СССР [ 1.46 GB ] Нестерка | | DVDRip от AVP Studio AVP Studio Скачать
1 | 0

28-11-2019 20:33  

Отключить вcю реклaмy на сайте

    Дорогой пользователь! Огромная просьба, поблагодарите релизера, оцените раздачу и оставьте свои комментарий, если Вы скачали Нестерка через торрент бесплатно!!
    Комментировать посты могут только пользователи прошедшие не сложную регистрацию
    Показать сообщения:    


    Нестерка через торрент
    Скачать бесплатно Нестерка
    Нестерка скачать торрент
    Нестерка смотреть онлайн
    Cкачать фильм Нестерка бесплатно
    Нестерка скачать торрент в хорошем качестве
    Нестерка смотреть онлайн бесплатно в хорошем качестве
    Вы не можете начинать темы
    Вы не можете отвечать на сообщения
    Вы не можете редактировать свои сообщения
    Вы не можете удалять свои сообщения
    Вы не можете голосовать в опросах
    Вы не можете прикреплять файлы к сообщениям
    Вы можете скачивать файлы