Доктор Стрэндж

Лицензия

Добыча

MVO

Дом дракона

1 сезон

Тор

Лицензия

Мэверик

Лицензия

Там, где раки поют

MVO

Властелин колец

1 сезон

Ultimate

pack

Рекомендуем

30

Repack

ВАЖНО

ВАЖНО

Ghostwire

RePack

jed

RePack

nioh2

RePack

RDR2

RePack

NEED FOR SPEED™ PAYBACK

RePack

скачать торрент

Кинопоиск HD

Острые козырьки 6 сезон

6 сезон

FAR CRY 6

RePack

скачать торрент

Лицензия

скачать торрент

MVO

1

1 сезон

скачать торрент

1 сезон

скачать торрент

Лицензия

  

Ограбление на Бейкер-Стрит / The Bank Job (Роджер Дональдсон / Roger Donaldson) [2008, Великобритания, США, триллер, драма, криминал, BDRip-AVC] Dub (CP-Digital) + MVO (С.Р.И.) + 2x AVO (Гаврилов, Немахов) + Original (Eng) + Subs (Rus, Eng)

Ограбление на Бейкер-Стрит через торрент piratbit.org

Размер: 4.07 GB | Добавлен: 6 лет 2 мес. назад | Торрент скачан:51 раз
Смотреть онлайн Ограбление на Бейкер-Стрит | Скачать   

21-07-2016 05:35 Ограбление на Бейкер-Стрит Скачать торрент  

Ограбление на Бейкер-Стрит / The Bank Job«Легендарное преступление: рассекречено через 30 лет»
Страна: Великобритания, США
Жанр: триллер, драма, криминал
Год выпуска: 2008
Продолжительность: 01:51:39
Перевод №1: Профессиональный (полное дублирование) - CP-Digital
Перевод №2: Профессиональный (многоголосый закадровый) - С.Р.И.
Перевод №3: Авторский (одноголосый закадровый) - А.Гаврилов - отдельно в раздаче
Перевод №4: Авторский (одноголосый закадровый) - Ю.Немахов - отдельно в раздаче
Оригинальная аудиодорожка: English
Cубтитры: Русские (полные - CP-Digital), English (full - BD US)
Навигация по главам: присутствует - 12 глав
Режиссер: Роджер Дональдсон / Roger Donaldson
В ролях: Джейсон Стэйтем, Саффрон Берроуз, Стивен Кэмпбелл Мур, Дэниэл Мейс, Джеймс Фолкнер, Алки Дэвид, Майкл Джибсон, Джорджия Тейлор, Ричард Линтерн, Питер Боулз и др.
Описание: Фильм основан на реальных событиях, происходивших в Великобритании в 1971 году. После 35 лет забвения мы наконец узнаем об одном из самых легендарных ограблений банка в истории Великобритании, когда не было произведено ни одного ареста и не было найдено ни малейшего следа похищенных денег.

Налёт на банк на Бейкер Стрит был инициирован высокопоставленными официальными лицами, пытающимися добраться до заветной банковской ячейки, в которой хозяйка одного из известнейших борделей Лондона хранила секретную информацию. Теперь запрет на разглашение информации об этом ограблении снят британским правительством, и перед нами открывается красочная, лихо закрученная история, полная тайн, сюрпризов и неожиданных поворотов.

Download sample
Качество видео: BDRip-AVC | исх.BDRemux 1080p- thx: zackary
Формат: MKV
Видео: 1 140x642 (16:9), 24.000 fps, H.264 ~2973 kbps avg, 0.165 bit/pixel
Аудио №1: 48.0 kHz, AC3 Dolby Digital, 3/2 (L,C,R,l,r) + LFE ch, ~448 kbps | Профессиональный (полное дублирование) - CP-Digital
Аудио №2: 48.0 kHz, AC3 Dolby Digital, 3/2 (L,C,R,l,r) + LFE ch, ~448 kbps | Профессиональный (многоголосый закадровый) - С.Р.И.
Аудио №3: 48.0 kHz, AC3 Dolby Digital, 3/2 (L,C,R,l,r) + LFE ch, ~448 kbps | Авторский (одноголосый закадровый) - А.Гаврилов - отдельно в раздаче
Аудио №4: 48.0 kHz, AC3 Dolby Digital, 3/2 (L,C,R,l,r) + LFE ch, ~448 kbps | Авторский (одноголосый закадровый) - Ю.Немахов - отдельно в раздаче
Аудио №5: 48.0 kHz, AC3 Dolby Digital, 3/2 (L,C,R,l,r) + LFE ch, ~448 kbps | English
General
Unique ID : 183142902466366850486270314705029240303 (0x89C80A3D30D4BBFC857E13CBB7ED15EF)
Complete name : D:\Фильмы\Рипы\The Bank Job.2008.BDRip-AVC.eFK tRuAVC\The Bank Job.2008.BDRip-AVC.eFK tRuAVC.mkv
Format : Matroska
Format version : Version 4 / Version 2
File size : 3.37 GiB
Duration : 1h 51mn
Overall bit rate : 4 320 Kbps
Movie name : Ограбление на Бейкер-Стрит / The Bank Job (2008) - Release for rutracker
Encoded date : UTC 2014-10-19 08:14:59
Writing application : mkvmerge v7.2.0 ('On Every Street') 64bit built on Sep 13 2014 15:52:10
Writing library : libebml v1.3.0 + libmatroska v1.4.1
DURATION : 01:46:00.332000000
NUMBER_OF_FRAMES : 1604
NUMBER_OF_BYTES : 75984
_STATISTICS_WRITING_APP : mkvmerge v7.2.0 ('On Every Street') 64bit built on Sep 13 2014 15:52:10
_STATISTICS_WRITING_DATE_UTC : 2014-10-19 08:14:59
_STATISTICS_TAGS : BPS DURATION NUMBER_OF_FRAMES NUMBER_OF_BYTES
Attachment : Yes

Video
ID : 1
Format : AVC
Format/Info : Advanced Video Codec
Format profile : High@L4.1
Format settings, CABAC : Yes
Format settings, ReFrames : 10 frames
Codec ID : V_MPEG4/ISO/AVC
Duration : 1h 51mn
Bit rate : 2 890 Kbps
Width : 1 140 pixels
Height : 642 pixels
Display aspect ratio : 16:9
Frame rate mode : Constant
Frame rate : 24.000 fps
Color space : YUV
Chroma subsampling : 4:2:0
Bit depth : 8 bits
Scan type : Progressive
Bits/(Pixel*Frame) : 0.165
Stream size : 2.25 GiB (67%)
Title : eFK tRuAVC
Writing library : x264 core 142 r2479kMod dd79a61
Encoding settings : cabac=1 / ref=10 / deblock=1:-2:-2 / analyse=0x3:0x133 / me=umh / subme=11 / psy=1 / fade_compensate=0.00 / psy_rd=1.00:0.05 / mixed_ref=1 / me_range=48 / chroma_me=1 / trellis=2 / 8x8dct=1 / cqm=0 / deadzone=21,11 / fast_pskip=0 / chroma_qp_offset=-3 / threads=12 / lookahead_threads=3 / sliced_threads=0 / nr=0 / decimate=1 / interlaced=0 / bluray_compat=0 / constrained_intra=0 / fgo=0 / bframes=16 / b_pyramid=2 / b_adapt=2 / b_bias=0 / direct=3 / weightb=1 / open_gop=0 / weightp=2 / keyint=250 / keyint_min=24 / scenecut=40 / intra_refresh=0 / rc_lookahead=60 / rc=crf / mbtree=0 / crf=20.5000 / qcomp=0.65 / qpmin=0 / qpmax=69 / qpstep=4 / vbv_maxrate=50000 / vbv_bufsize=62500 / crf_max=0.0 / nal_hrd=none / filler=0 / ip_ratio=1.30 / pb_ratio=1.20 / aq=3:0.90
Language : English
Default : Yes
Forced : No
Color primaries : BT.709
Transfer characteristics : BT.709
Matrix coefficients : BT.709
DURATION : 01:51:39.375000000
NUMBER_OF_FRAMES : 160785
NUMBER_OF_BYTES : 2489999276
_STATISTICS_WRITING_APP : mkvmerge v7.2.0 ('On Every Street') 64bit built on Sep 13 2014 15:52:10
_STATISTICS_WRITING_DATE_UTC : 2014-10-19 08:14:59
_STATISTICS_TAGS : BPS DURATION NUMBER_OF_FRAMES NUMBER_OF_BYTES

Audio #1
ID : 2
Format : AC-3
Format/Info : Audio Coding 3
Mode extension : CM (complete main)
Format settings, Endianness : Big
Codec ID : A_AC3
Duration : 1h 51mn
Bit rate mode : Constant
Bit rate : 448 Kbps
Channel count : 6 channels
Channel positions : Front: L C R, Side: L R, LFE
Sampling rate : 48.0 KHz
Bit depth : 16 bits
Compression mode : Lossy
Stream size : 358 MiB (10%)
Title : Dub (CP-Digital)
Language : Russian
Default : Yes
Forced : No

Audio #2
ID : 3
Format : AC-3
Format/Info : Audio Coding 3
Mode extension : CM (complete main)
Format settings, Endianness : Big
Codec ID : A_AC3
Duration : 1h 51mn
Bit rate mode : Constant
Bit rate : 448 Kbps
Channel count : 6 channels
Channel positions : Front: L C R, Side: L R, LFE
Sampling rate : 48.0 KHz
Bit depth : 16 bits
Compression mode : Lossy
Stream size : 358 MiB (10%)
Title : MVO (С.Р.И.)
Language : Russian
Default : No
Forced : No

Audio #3
ID : 4
Format : AC-3
Format/Info : Audio Coding 3
Mode extension : CM (complete main)
Format settings, Endianness : Big
Codec ID : A_AC3
Duration : 1h 51mn
Bit rate mode : Constant
Bit rate : 448 Kbps
Channel count : 6 channels
Channel positions : Front: L C R, Side: L R, LFE
Sampling rate : 48.0 KHz
Bit depth : 16 bits
Compression mode : Lossy
Stream size : 358 MiB (10%)
Language : English
Default : No
Forced : No

Text #1
ID : 5
Format : UTF-8
Codec ID : S_TEXT/UTF8
Codec ID/Info : UTF-8 Plain Text
Title : full (CP-Digital)
Language : Russian
Default : No
Forced : No

Text #2
ID : 6
Format : UTF-8
Codec ID : S_TEXT/UTF8
Codec ID/Info : UTF-8 Plain Text
Title : full (BD US)
Language : English
Default : No
Forced : No

Menu
00:00:00.000 : en:Chapter 01
00:10:55.625 : en:Chapter 02
00:18:58.666 : en:Chapter 03
00:24:22.833 : en:Chapter 04
00:36:18.916 : en:Chapter 05
00:45:42.875 : en:Chapter 06
00:54:06.000 : en:Chapter 07
00:59:47.833 : en:Chapter 08
01:05:46.791 : en:Chapter 09
01:15:14.708 : en:Chapter 10
01:30:42.708 : en:Chapter 11
01:45:23.458 : en:Chapter 12
x264 [info]: frame I:1341 Avg QP:18.34 size: 69601
x264 [info]: frame P:35850 Avg QP:20.08 size: 27663
x264 [info]: frame B:123594 Avg QP:21.23 size: 11367
x264 [info]: consecutive B-frames: 2.2% 3.4% 9.6% 21.0% 16.5% 39.9% 3.7% 0.5% 0.6% 0.5% 0.1% 0.1% 0.1% 0.1% 0.3% 0.4% 1.0%
x264 [info]: mb I I16..4: 8.4% 77.2% 14.4%
x264 [info]: mb P I16..4: 1.3% 12.9% 1.9% P16..4: 32.3% 33.8% 8.9% 0.9% 0.1% skip: 7.9%
x264 [info]: mb B I16..4: 0.3% 1.7% 0.3% B16..8: 37.2% 18.9% 2.4% direct: 5.1% skip:34.2% L0:42.8% L1:48.4% BI: 8.8%
x264 [info]: 8x8 transform intra:78.3% inter:68.4%
x264 [info]: direct mvs spatial:99.9% temporal:0.1%
x264 [info]: coded y,uvDC,uvAC intra: 77.5% 77.9% 43.9% inter: 24.9% 22.4% 2.1%
x264 [info]: i16 v,h,dc,p: 24% 13% 4% 59%
x264 [info]: i8 v,h,dc,ddl,ddr,vr,hd,vl,hu: 14% 9% 7% 9% 12% 13% 12% 11% 12%
x264 [info]: i4 v,h,dc,ddl,ddr,vr,hd,vl,hu: 26% 13% 7% 6% 10% 11% 10% 8% 9%
x264 [info]: i8c dc,h,v,p: 29% 27% 26% 18%
x264 [info]: Weighted P-Frames: Y:3.6% UV:2.4%
x264 [info]: ref P L0: 50.4% 11.6% 17.6% 5.6% 4.4% 3.1% 2.7% 1.5% 1.4% 1.4% 0.2% 0.0%
x264 [info]: ref B L0: 78.8% 10.4% 4.5% 2.1% 1.5% 1.2% 1.0% 0.5% 0.2%
x264 [info]: ref B L1: 94.1% 5.9%
x264 [info]: kb/s:2973.41

x264 [total]: encoded 160785 frames, 6.65 fps, 2973.41 kb/s, duration 6:42:49.05



Скачать Ограбление на Бейкер-Стрит через торрент http://i52.fastpic.ru/big/2013/0118/8a/2f7df69420473b3b97588efcb242a78a.png Скачать, смотреть онлайн Ограбление на Бейкер-Стрит бесплантно в хорошем качестве Описание: Фильм основан на реальных событиях, происходивших в Великобритании в 1971 году. После 35 лет забвения мы наконец узнаем об одном ... 10 10 3
Торрент: Зарегистрирован [2016-07-21 05:35] · скачан: 51 раз
Статус: √ проверено
Размер: 4.07 GB
Как cкачать? Как скачать Ограбление на Бейкер-Стрит через торрент | UTorrent

% Раздел Тема Автор DL S | L
Фильмы [HD 720p, 1080p] (Хороший звук DUB, MVO) [ 11.83 GB ] Ограбление на Бейкер-Стрит / The Bank Job | DUB | 1080p, DUB, AVO -Lockdown- Скачать
1 | 0
Фильмы 2006-2008 [ 744 MB ] Ограбление на Бейкер-Стрит / The Bank Job | DUB | HDRip, DUB Mr. Freeman Скачать
1 | 0

28-11-2019 20:33  

Отключить вcю реклaмy на сайте

21-07-2016 06:00 Ограбление на Бейкер-Стрит Скачать торрент  

Фильм просто класс)



21-07-2016 06:37 Ограбление на Бейкер-Стрит Скачать торрент  

bober100 писал(а):

Фильм просто класс)

Согласен!еще есть тоже фильм,Только ограбление по итальянски,тоже не плохой



21-07-2016 07:37 Ограбление на Бейкер-Стрит Скачать торрент  

sanekbest1, я его смотрел)для меня слабоват)на мой взгляд трилогия про Оушена лучшее про грабителей)



21-07-2016 07:46 Ограбление на Бейкер-Стрит Скачать торрент  

bober100 писал(а):

sanekbest1, я его смотрел)для меня слабоват)на мой взгляд трилогия про Оушена лучшее про грабителей)




    Дорогой пользователь! Огромная просьба, поблагодарите релизера, оцените раздачу и оставьте свои комментарий, если Вы скачали Ограбление на Бейкер-Стрит через торрент бесплатно!!
    Комментировать посты могут только пользователи прошедшие не сложную регистрацию
    Показать сообщения:    


    Ограбление на Бейкер-Стрит через торрент
    Скачать бесплатно Ограбление на Бейкер-Стрит
    Ограбление на Бейкер-Стрит скачать торрент
    Ограбление на Бейкер-Стрит смотреть онлайн
    Cкачать фильм Ограбление на Бейкер-Стрит бесплатно
    Ограбление на Бейкер-Стрит скачать торрент в хорошем качестве
    Ограбление на Бейкер-Стрит смотреть онлайн бесплатно в хорошем качестве
    Вы не можете начинать темы
    Вы не можете отвечать на сообщения
    Вы не можете редактировать свои сообщения
    Вы не можете удалять свои сообщения
    Вы не можете голосовать в опросах
    Вы не можете прикреплять файлы к сообщениям
    Вы можете скачивать файлы