1 сезон

3 сезон

iTunes

1

iTunes

DUB Netflix

iTunes

13

1 сезон

RePack

30

Deluxe

pack

Легкие деньги

ВАЖНО

ИГРА 18+

pack

RePack

MK11

RePack

jed

RePack

fifa19

RePack

RDR2

RePack

NEED FOR SPEED™ PAYBACK

4 сезон

9 сезон

Бесстыжие 9 сезон

Все сериалы

все сериалы на PB.wtf

RePack

FAR CRY 5

Anonymous, добрый день, мы не успеваем до 1 числа собрать деньги на оплату серверов, помогите нам пожалуйста в это трудное время. В качестве благодарности мы отключим Вам всю рекламу на сайте (укажите свой ник в строку Ваше имя)!

×
  
Magnet ссылка

Мистериум. Тьма в бутылке / Flaskepost fra P (Ганс Петтер Моланд) [2016 г., триллер, драма, WEB-DLRip, Любительский (многоголосый)] СПД piratbit.org

Мистериум. Тьма в бутылке через торрент piratbit.org

Размер: 1.46 GB | Добавлен: 4 года 11 мес. назад | Торрент скачан:746 раз
Скачать  

22-07-2016 08:09 Мистериум. Тьма в бутылке Скачать торрент  

Мистериум. Тьма в бутылке / Flaskepost fra PГод выпуска: 2016
Страна: Дания, Германия, Швеция, Норвегия
Жанр: триллер, драма
Продолжительность: 112 мин. / 01:52
Перевод: Любительский (многоголосый)СПД
Субтитры: Отсутствуют

Режиссер: Ганс Петтер Моланд
Продюссер: Петер Ольбек Йенсен, Луиза Вест, Фабиан Гасмия
Сценарий: Николай Арсель, Юсси Адлер-Олсен

Бюджет: DKK 39 500 000
Премьера в мире: 3 марта 2016

зрителям, достигшим 16 лет
http://www.imdb.com/title/tt4088268/



В ролях: Николай Ли Каас, Фарес Фарес, Пол Сверре Валхейм Хаген, Якоб Ульрик Ломанн, Джохэнн Луиз Шмидт, Якоб Офтебро, Сигне Анастассиа Маннов, Сёрен Пильмарк, Михаэль Броструп

Описание: Выброшенная на берег моря бутылка с леденящим душу посланием, написанным восемь лет назад, привлекает внимание особого отдела полиции Копенгагена. За расследование берутся комиссар Карл Мёрк и его помощник. Они выходят на след убийцы-психопата и раскрывают жуткую историю похищенных детей, об исчезновении которых никто не заявлял…

Качество: WEB-DLRip
Формат: AVI
Видео кодек: XviD
Аудио кодек: AC3
Видео: 720x304 (2.37:1), 24 fps, XviD build 50 ~1664 kbps avg, 0.32 bit/pixel
Аудио#1: 48 kHz, AC3 Dolby Digital, 2/0 (L,R) ch, ~192 kbps
скриншот  скриншот  скриншот  

General
Complete name : C:\Users\ghdf\Desktop\Tma.V.ButiLKe.2O16.P.WEB-DLRip.1.46Gb.avi
Format : AVI
Format/Info : Audio Video Interleave
File size : 1.46 GiB
Duration : 1h 51mn
Overall bit rate : 1 866 Kbps
Writing application : VirtualDubMod 1.5.10.2 (build 2540/release)
Writing library : VirtualDubMod build 2540/release

Video
ID : 0
Format : MPEG-4 Visual
Format profile : Advanced Simple@L5
Format settings, BVOP : 2
Format settings, QPel : No
Format settings, GMC : No warppoints
Format settings, Matrix : Custom
Codec ID : XVID
Codec ID/Hint : XviD
Duration : 1h 51mn
Bit rate : 1 665 Kbps
Width : 720 pixels
Height : 304 pixels
Display aspect ratio : 2.35:1
Frame rate : 24.000 fps
Color space : YUV
Chroma subsampling : 4:2:0
Bit depth : 8 bits
Scan type : Progressive
Compression mode : Lossy
Bits/(Pixel*Frame) : 0.317
Stream size : 1.30 GiB (89%)
Writing library : XviD 1.2.1 (UTC 2008-12-04)

Audio
ID : 1
Format : AC-3
Format/Info : Audio Coding 3
Mode extension : CM (complete main)
Format settings, Endianness : Big
Codec ID : 2000
Duration : 1h 51mn
Bit rate mode : Constant
Bit rate : 192 Kbps
Channel count : 2 channels
Channel positions : Front: L R
Sampling rate : 48.0 KHz
Bit depth : 16 bits
Compression mode : Lossy
Stream size : 153 MiB (10%)
Alignment : Split accross interleaves
Interleave, duration : 42 ms (1.00 video frame)
Interleave, preload duration : 500 ms

Внимание! Присутствует Реклама от Спонсора! piratbit.org



Скачать Мистериум. Тьма в бутылке через торрент http://picsee.net/upload/2016-07-21/e417b736b111.png Скачать фильм Мистериум. Тьма в бутылке через торрент бесплантно в хорошем качестве Описание: Выброшенная на берег моря бутылка с леденящим душу посланием, написанным восемь лет назад, привлекает внимание особого отдела ... 9.1 10 14
Info! Золотая раздача, скачанное не засчитывается.
Торрент: Зарегистрирован [2016-07-22 08:09] · скачан: 746 раз
Статус: T временная
Размер: 1.46 GB
Как cкачать? Как скачать Мистериум. Тьма в бутылке через торрент | UTorrent

% Раздел Тема Автор DL S | L
T Фильмы (WEB-DL 720p, 1080p) [ 3.58 GB ] Мистериум. Тьма в бутылке / Flaskepost fra P [2016 WEB-DL 1080p] Любительский многоголосый [СПД] axelutsk Скачать
1 | 0

28-11-2019 20:33  

Отключить всю рекламу на сайте

22-07-2016 21:01 Мистериум. Тьма в бутылке Скачать торрент  

Как фильм?piratbit.org



23-07-2016 05:42 Мистериум. Тьма в бутылке Скачать торрент  

zra писал(а):

Как фильм?

Закрученный детектив. Для любителей. Не плох как и первая часть.piratbit.org



27-07-2016 09:19 Мистериум. Тьма в бутылке Скачать торрент  

хороший детективpiratbit.org



    Дорогой пользователь! Огромная просьба, поблагодарите релизера, оцените раздачу и оставьте свои комментарий, если Вы скачали Мистериум. Тьма в бутылке через торрент бесплатно! Внесите свою лепту в развитие PiratBit!
    Комментировать посты могут только пользователи прошедшие не сложную регистрацию
    Показать сообщения:    

    Мистериум. Тьма в бутылке через торрент
    Скачать бесплатно Мистериум. Тьма в бутылке
    Мистериум. Тьма в бутылке скачать торрент
    Мистериум. Тьма в бутылке смотреть онлайн
    Cкачать фильм Мистериум. Тьма в бутылке бесплатно
    Мистериум. Тьма в бутылке скачать торрент в хорошем качестве
    Мистериум. Тьма в бутылке смотреть онлайн бесплатно в хорошем качестве


    Вы не можете начинать темы
    Вы не можете отвечать на сообщения
    Вы не можете редактировать свои сообщения
    Вы не можете удалять свои сообщения
    Вы не можете голосовать в опросах
    Вы не можете прикреплять файлы к сообщениям
    Вы можете скачивать файлы