Лицензия

MVO

1

1 сезон

Лицензия

Лицензия

13

MVO

1 сезон

Deluxe Edition

pack

Рекомендуем

30

Repack

ВАЖНО

ВАЖНО

Ghostwire

RePack

jed

RePack

fifa19

RePack

RDR2

RePack

NEED FOR SPEED™ PAYBACK

RePack

Кинопоиск HD

 Острые козырьки 6 сезон

6 сезон

FAR CRY 6

RePack

Лицензия

MVO

1

1 сезон

1 сезон

Лицензия

  

Пути и судьбы (Яков Базелян) [1955, СССР, драма, SATRip-AVC от AVP Studio]

Пути и судьбы через торрент piratbit.org

Размер: 1.09 GB | Добавлен: 6 лет 2 мес. назад | Торрент скачан:20 раз
Смотреть онлайн Пути и судьбы | Скачать   

24-07-2016 07:58 Пути и судьбы Скачать торрент  

Пути и судьбы
Страна: СССР
Производство: Киевская к/ст

Жанр: драма
Год выпуска: 1955
Продолжительность: 01:18:09

Перевод: Не требуется
Cубтитры: нет
Оригинальная аудиодорожка: русский

Режиссер: Яков Базелян

В ролях:
Юрий Саранцев, Аркадий Толбузин, Ролан Быков, Леонид Пирогов, Валентина Ушакова, Татьяна Алексеева, Евгения Ершова, Ада Войцик, Георгий Юматов, Муза Крепкогорская...
Полный список актёров

Описание:
Сельский врач Иван Бойко получает приглашение в столичную клинику. Здесь герой встречает институтского друга Дмитрия Костенко, преуспевающего доцента. Очень скоро Иван убеждается в моральной нечистоплотности Дмитрия, присвоившего научный труд скромного коллеги Венника. Бойко разоблачает перед коллективом нечистого на руку кандидата наук.

Источник: DVB
Качество видео: SATRip-AVC
Формат видео: MKV

Видео: 704->762x572 (4:3), 25 fps, H264 ~ 1797 kbps avg, 0.178 bit/pixel
Аудио: 48 kHz, Dolby Digital AC3 2.0, 192 kbps

Раздача от:
Общее
Полное имя : Puti.i.sudby.1955.SATRip-AVC_[New-team]_by_AVP_Studio-002.mkv
Формат : Matroska
Версия формата : Version 4 / Version 2
Размер файла : 1,09 Гбайт
Продолжительность : 1 ч. 18 м.
Общий поток : 1991 Кбит/сек
Дата кодирования : UTC 2016-07-23 08:12:45
Программа кодирования : mkvmerge v9.3.1 ('Mask Machine') 64bit
Библиотека кодирования : libebml v1.3.4 + libmatroska v1.4.5

Видео
Идентификатор : 1
Формат : AVC
Формат/Информация : Advanced Video Codec
Профиль формата : High@L4.1
Параметр CABAC формата : Да
Параметр ReFrames формата : 10 кадров
Идентификатор кодека : V_MPEG4/ISO/AVC
Продолжительность : 1 ч. 18 м.
Битрейт : 1797 Кбит/сек
Ширина : 704 пикселя
Высота : 572 пикселя
Соотношение сторон : 4:3
Режим частоты кадров : Постоянный
Частота кадров : 25,000 кадров/сек
Цветовое пространство : YUV
Субдискретизация насыщенности : 4:2:0
Битовая глубина : 8 бит
Тип развёртки : Прогрессивная
Бит/(Пиксели*Кадры) : 0.178
Размер потока : 1004 Мбайт (90%)
Язык : Russian
Default : Да
Forced : Нет

Аудио
Идентификатор : 2
Формат : AC-3
Формат/Информация : Audio Coding 3
Расширение режима : CM (complete main)
Параметр Endianness формата : Big
Идентификатор кодека : A_AC3
Продолжительность : 1 ч. 18 м.
Вид битрейта : Постоянный
Битрейт : 192 Кбит/сек
Каналы : 2 канала
Расположение каналов : Front: L R
Частота : 48,0 КГц
Частота кадров : 31,250 кадров/сек (1536 spf)
Метод сжатия : С потерями
Задержка видео : 8 мс.
Размер потока : 107 Мбайт (10%)
Язык : Russian
Default : Да
Forced : Нет



Скачать Пути и судьбы через торрент http://i013.radikal.ru/1607/38/ec62885941d1.png Скачать, смотреть онлайн Пути и судьбы бесплантно в хорошем качестве Описание:Сельский врач Иван Бойко получает приглашение в столичную клинику. Здесь герой встречает институтского друга Дмитрия Костенко, ... 10 10 2
Info! Золотая раздача, скачанное не засчитывается.
Торрент: Зарегистрирован [2016-07-24 07:58] · скачан: 20 раз
Статус: √ проверено
Размер: 1.09 GB
Как cкачать? Как скачать Пути и судьбы через торрент | UTorrent

% Раздел Тема Автор DL S | L
Кино СССР [ 744 MB ] Пути и судьбы | | SATRip от AVP Studio AVP Studio Скачать
1 | 0
Кино СССР [ 1.09 GB ] Пути и судьбы | | SATRip от AVP Studio AVP Studio Скачать
1 | 0

28-11-2019 20:33  

Отключить вcю реклaмy на сайте

    Дорогой пользователь! Огромная просьба, поблагодарите релизера, оцените раздачу и оставьте свои комментарий, если Вы скачали Пути и судьбы через торрент бесплатно!!
    Комментировать посты могут только пользователи прошедшие не сложную регистрацию
    Показать сообщения:    


    Пути и судьбы через торрент
    Скачать бесплатно Пути и судьбы
    Пути и судьбы скачать торрент
    Пути и судьбы смотреть онлайн
    Cкачать фильм Пути и судьбы бесплатно
    Пути и судьбы скачать торрент в хорошем качестве
    Пути и судьбы смотреть онлайн бесплатно в хорошем качестве
    Вы не можете начинать темы
    Вы не можете отвечать на сообщения
    Вы не можете редактировать свои сообщения
    Вы не можете удалять свои сообщения
    Вы не можете голосовать в опросах
    Вы не можете прикреплять файлы к сообщениям
    Вы можете скачивать файлы