1 сезон

3 сезон

iTunes

1

iTunes

DUB Netflix

iTunes

13

1 сезон

RePack

30

Deluxe

pack

Легкие деньги

ВАЖНО

ИГРА 18+

pack

RePack

MK11

RePack

jed

RePack

fifa19

RePack

RDR2

RePack

NEED FOR SPEED™ PAYBACK

4 сезон

9 сезон

Бесстыжие 9 сезон

Все сериалы

все сериалы на PB.wtf

RePack

FAR CRY 5

Anonymous, доброй ночи, мы не успеваем до 1 числа собрать деньги на оплату серверов, помогите нам пожалуйста в это трудное время. В качестве благодарности мы отключим Вам всю рекламу на сайте (укажите свой ник в строку Ваше имя)!

×
  
Magnet ссылка

Белоснежка и Охотник 2 / The Huntsman: Winter's War (Седрик Николя-Троян) [2016 г., Фэнтези, боевик, драма, приключения, HDRip] DUB [iTunes] piratbit.org

Белоснежка и Охотник 2 через торрент piratbit.org

Размер: 2.05 GB | Добавлен: 4 года 10 мес. назад | Торрент скачан:207 раз
Скачать  

29-07-2016 09:13 Белоснежка и Охотник 2 Скачать торрент  

The Huntsman: Winter's War«The story before Snow White»

Год выпуска » 2016
Страна » США
Жанр » Фэнтези, боевик, драма, приключения
Продолжительность » 01:53:57
Перевод » Профессиональный (полное дублирование) [iTunes]
Субтитры » Отсутствуют

В ролях
» Крис Хемсворт, Эмили Блант, Джессика Честейн, Шарлиз Терон, Сэм Клафлин, Шеридан Смит, Колин Морган, Софи Куксон, Ник Фрост, Роб Брайдон


Режиссёр
» Седрик Николя-Троян

» Когда Равенна и её сестра, ледяная королева Фрейя, готовятся завоевать Землю, два перебежчика — охотник Эрик, ранее помогший Белоснежке победить Равенну, и его запретная возлюбленная Сара — намерены остановить их.

• Качество » HDRip
• Формат » avi
• Видео кодек » XviD
• Аудио кодек » AC3
• Видео »1794 Кбит/с, 720x304 , 23.976 fps
• Аудио » Русский (AC-3 / 6 ch / 384 kbps / 48,0 КГц / 16 bit )
• Аудио » Английский (AC-3 / 6 ch / 384 kbps / 48,0 КГц / 16 bit)



Бюджет: $115 000 000
Сборы в США: $48 003 015
Сборы в мире: + $116 599 148 = $164 602 163
Сборы в России: $3 832 682

Дата мировой премьеры: 29 марта 2016
Дата российской премьеры: 14 апреля 2016, «UPI»
Общее
Полное имя : D:\beL0CHezhka.i.0x0tH1k.2.2O16.D.HDRip.21OOMB.avi
Формат : AVI
Формат/Информация : Audio Video Interleave
Профиль формата : OpenDML
Размер файла : 2,05 Гбайт
Продолжительность : 1 ч. 53 м.
Общий поток : 2580 Кбит/сек
Название фильма : beL0CHezhka.i.0x0tH1k.2.2O16.D.HDRip.21OOMB
Программа кодирования : VirtualDubMod 1.5.10.2 (build 2540/release)
Формат оригинала/Имя : Movie

Видео
Идентификатор : 0
Формат : MPEG-4 Visual
Профиль формата : Advanced Simple@L5
Параметр BVOP формата : 2
Параметр QPel формата : Нет
Параметр GMC формата : Без точки перехода
Параметр матрицы формата : Default (MPEG)
Идентификатор кодека : XVID
Идентификатор кодека/Подсказка : XviD
Продолжительность : 1 ч. 53 м.
Битрейт : 1794 Кбит/сек
Ширина : 720 пикселей
Высота : 304 пикселя
Соотношение сторон : 2,35:1
Частота кадров : 23,976 кадра/сек
Цветовое пространство : YUV
Субдискретизация насыщенности : 4:2:0
Битовая глубина : 8 бит
Тип развёртки : Прогрессивная
Метод сжатия : С потерями
Бит/(Пиксели*Кадры) : 0.342
Размер потока : 1,43 Гбайт (70%)
Библиотека кодирования : XviD 1.2.1 (UTC 2008-12-04)

Аудио #1
Идентификатор : 1
Формат : AC-3
Формат/Информация : Audio Coding 3
Расширение режима : CM (complete main)
Параметр Endianness формата : Big
Идентификатор кодека : 2000
Продолжительность : 1 ч. 53 м.
Вид битрейта : Постоянный
Битрейт : 384 Кбит/сек
Каналы : 6 каналов
Расположение каналов : Front: L C R, Side: L R, LFE
Частота : 48,0 КГц
Битовая глубина : 16 бит
Метод сжатия : С потерями
Размер потока : 313 Мбайт (15%)
Выравнивание : Разделение по промежуткам
Продолжительность промежутка : 42 мс. (1,00 видеокадр)
Время предзагрузки промежутка : 500 мс.

Аудио #2
Идентификатор : 2
Формат : AC-3
Формат/Информация : Audio Coding 3
Расширение режима : CM (complete main)
Параметр Endianness формата : Big
Идентификатор кодека : 2000
Продолжительность : 1 ч. 53 м.
Вид битрейта : Постоянный
Битрейт : 384 Кбит/сек
Каналы : 6 каналов
Расположение каналов : Front: L C R, Side: L R, LFE
Частота : 48,0 КГц
Битовая глубина : 16 бит
Метод сжатия : С потерями
Размер потока : 313 Мбайт (15%)
Выравнивание : Разделение по промежуткам
Продолжительность промежутка : 42 мс. (1,00 видеокадр)
Время предзагрузки промежутка : 500 мс.
[/code]
скриншот   скриншот   скриншот  
piratbit.org



Скачать Белоснежка и Охотник 2 через торрент https://pic1.kartinco.top/images/10/wttgh.jpg Скачать фильм Белоснежка и Охотник 2 через торрент бесплантно в хорошем качестве В ролях » Крис Хемсворт, Эмили Блант, Джессика Честейн, Шарлиз Терон, Сэм Клафлин, Шеридан Смит, Колин Морган, Софи Куксон, Ник Фрост, Роб ... 10 10 9
Info! Золотая раздача, скачанное не засчитывается.
Торрент: Зарегистрирован [2016-07-29 09:13] · скачан: 207 раз
Статус: √ проверено
Размер: 2.05 GB
Как cкачать? Как скачать Белоснежка и Охотник 2 через торрент | UTorrent

28-11-2019 20:33  

Отключить всю рекламу на сайте

31-07-2016 04:48 Белоснежка и Охотник 2 Скачать торрент  

На раз пойдёт)piratbit.org



    Дорогой пользователь! Огромная просьба, поблагодарите релизера, оцените раздачу и оставьте свои комментарий, если Вы скачали Белоснежка и Охотник 2 через торрент бесплатно! Внесите свою лепту в развитие PiratBit!
    Комментировать посты могут только пользователи прошедшие не сложную регистрацию
    Показать сообщения:    

    Белоснежка и Охотник 2 через торрент
    Скачать бесплатно Белоснежка и Охотник 2
    Белоснежка и Охотник 2 скачать торрент
    Белоснежка и Охотник 2 смотреть онлайн
    Cкачать фильм Белоснежка и Охотник 2 бесплатно
    Белоснежка и Охотник 2 скачать торрент в хорошем качестве
    Белоснежка и Охотник 2 смотреть онлайн бесплатно в хорошем качестве


    Вы не можете начинать темы
    Вы не можете отвечать на сообщения
    Вы не можете редактировать свои сообщения
    Вы не можете удалять свои сообщения
    Вы не можете голосовать в опросах
    Вы не можете прикреплять файлы к сообщениям
    Вы можете скачивать файлы