2 сезон

iTunes

WEBRip

1

2 сезон

iTunes

1 сезон

1 сезон

RePack

30

Новинка

ВАЖНО

ИГРА 18+

pack

RePack

MK11
pack

Легкие деньги

RePack

jed

RePack

fifa19

RePack

RDR2

RePack

NEED FOR SPEED™ PAYBACK

4 сезон

9 сезон

Бесстыжие 9 сезон

Все сериалы

все сериалы на PB.wtf

RePack

FAR CRY 5

Anonymous, доброй ночи, мы не успеваем собрать деньги на оплату серверов за февраль, помогите нам пожалуйста в это трудное время. В качестве благодарности мы отключим Вам всю рекламу на сайте (укажите свой ник в строку Ваше имя)!

×
  
Magnet ссылка

Селфипати / #SELFIEPARTY (Любомир Левицкий) [2016 г., комедия, SATRip] Оригинал [Ukr] piratbit.org

Селфипати через торрент piratbit.org

Размер: 1.45 GB | Добавлен: 4 года 7 мес. назад | Торрент скачан:171 раз
Скачать  

31-07-2016 15:03 Селфипати Скачать торрент  

Селфипати / #SELFIEPARTYГод выпуска: 2016
Страна: Украина
Жанр: комедия
Продолжительность: 01:36:27
Перевод: Оригинальный (Украинский)
Субтитры: отсутствуют

Режиссер: Любомир Левицкий
Продюссер: Сергей Лавренюк, Любомир Левицкий, Наталья Левицкая
Сценарий: Сергей Касторных

Премьера в мире: 31 марта 2016



В ролях: Ксения Мишина, Артур Шурипа, Борис Савенко, Богдан Рубан, Владимир Сытник, Сергей Зоренко, Павел Ли, Дмитрий Ступка, Светлана Вальнова, Сергей Шляхтюк

Описание: За день до получения дипломов об окончании университета, четверо наших героев посетили SELFIEPARTY, на котором было много веселья, выпивки и девушек. На следующий день друзья оказываются в полицейском участке, где их обвиняют в убийстве карлика. После столь бурной вечеринки, никто из друзей не может вспомнить, что на самом деле произошло. Они решают доказать свою невиновность обратившись в интернет, где зафиксировано на видео, много моментов , этой грандиозной вечеринки. Видео-ролики и проливают свет на события, тем самым спасая наших героев от тюремного заключения.

Качество: SATRip
Формат: AVI
Видео кодек: XviD
Аудио кодек: MP2
Видео: 1956 кб/с, 720x304, 25 fps
Аудио: 192 кб/с, 2 ch, 48,0 КГц




Общее
Полное имя : E:\#SelfieParty (2016) SATRip [Hurtom].avi
Формат : AVI
Формат/Информация : Audio Video Interleave
Размер файла : 1,45 Гбайт
Продолжительность : 1 ч. 36 м.
Общий поток : 2158 Кбит/сек
Программа кодирования : VirtualDubMod 1.5.10.3 | www.virtualdub-fr.org || (build 2550/release)
Библиотека кодирования : VirtualDubMod build 2550/release

Видео
Идентификатор : 0
Формат : MPEG-4 Visual
Профиль формата : Advanced Simple@L5
Параметр BVOP формата : Нет
Параметр QPel формата : Нет
Параметр GMC формата : Без точки перехода
Параметр матрицы формата : Default (MPEG)
Идентификатор кодека : XVID
Идентификатор кодека/Подсказка : XviD
Продолжительность : 1 ч. 36 м.
Битрейт : 1956 Кбит/сек
Ширина : 720 пикселей
Высота : 304 пикселя
Соотношение сторон : 2,35:1
Частота кадров : 25,000 кадров/сек
Цветовое пространство : YUV
Субдискретизация насыщенности : 4:2:0
Битовая глубина : 8 бит
Тип развёртки : Прогрессивная
Метод сжатия : С потерями
Бит/(Пиксели*Кадры) : 0.357
Размер потока : 1,32 Гбайт (91%)
Библиотека кодирования : XviD 73

Аудио
Идентификатор : 1
Формат : MPEG Audio
Версия формата : Version 1
Профиль формата : Layer 2
Идентификатор кодека : 50
Продолжительность : 1 ч. 36 м.
Вид битрейта : Постоянный
Битрейт : 192 Кбит/сек
Каналы : 2 канала
Частота : 48,0 КГц
Метод сжатия : С потерями
Размер потока : 132 Мбайт (9%)
Выравнивание : Соединение по промежуткам
Продолжительность промежутка : 40 мс. (1,00 видеокадр)
Время предзагрузки промежутка : 504 мс.

piratbit.org



Скачать Селфипати через торрент https://pic1.kartinco.top/images/10/mdce2.jpg Скачать фильм Селфипати через торрент бесплантно в хорошем качестве Описание: За день до получения дипломов об окончании университета, четверо наших героев посетили SELFIEPARTY, на котором было много ... 8.4 10 11
Info! Золотая раздача, скачанное не засчитывается.
Торрент: Зарегистрирован [2016-07-31 15:03] · скачан: 171 раз
Статус: √ проверено
Размер: 1.45 GB
Как cкачать? Как скачать Селфипати через торрент | UTorrent

% Раздел Тема Автор DL S | L
T Наши фильмы (HD, WEB-DL 720p, 1080p) [ 1.95 GB ] Селфипати / #SELFIEPARTY [2016 WEBRip 720p] -Lexx- Скачать
1 | 0

28-11-2019 20:33  

Отключить всю рекламу на сайте

31-07-2016 15:13 Селфипати Скачать торрент  

piratbit.org



31-07-2016 15:22 Селфипати Скачать торрент  

nn99nn, что значат эти ваши смайлики? Есть что сказать, пишите словами.
Смотреть на смайлы в комментах никому не интересно.

Изменения в системе комментирования раздач. Начисление PiratMoney за комментарии. piratbit.org



31-07-2016 15:24 Селфипати Скачать торрент  

-Lexx- писал(а):

nn99nn, что значат эти ваши смайлики? Есть что сказать, пишите словами.
Смотреть на смайлы в комментах никому не интересно.

Изменения в системе комментирования раздач. Начисление PiratMoney за комментарии.

Посмотрим, оценим, хотя не думаю что уж очень интересное получилось! А за труд спасибо!piratbit.org



31-07-2016 16:55 Селфипати Скачать торрент  

дык чо то на русском то будет?а то пипец как стремно смотреть на <вырезано> то.piratbit.org



31-07-2016 17:19 Селфипати Скачать торрент  

somic, фильма с русским переводом в сети нет.
Но вы можете подкинуть идейку насчет перевода PiratVoice.

PiratVoice. Озвучка. Набор в команду.

Возможно, переведут и озвучат. Если сочтут интересным, конечно. winkpiratbit.org



    Дорогой пользователь! Огромная просьба, поблагодарите релизера, оцените раздачу и оставьте свои комментарий, если Вы скачали Селфипати через торрент бесплатно! Внесите свою лепту в развитие PiratBit!
    Комментировать посты могут только пользователи прошедшие не сложную регистрацию
    Показать сообщения:    

    Селфипати через торрент
    Скачать бесплатно Селфипати
    Селфипати скачать торрент
    Селфипати смотреть онлайн
    Cкачать фильм Селфипати бесплатно
    Селфипати скачать торрент в хорошем качестве
    Селфипати смотреть онлайн бесплатно в хорошем качестве


    Вы не можете начинать темы
    Вы не можете отвечать на сообщения
    Вы не можете редактировать свои сообщения
    Вы не можете удалять свои сообщения
    Вы не можете голосовать в опросах
    Вы не можете прикреплять файлы к сообщениям
    Вы можете скачивать файлы