1 сезон

3 сезон

iTunes

1

iTunes

DUB Netflix

iTunes

13

1 сезон

RePack

30

Deluxe

pack

Легкие деньги

ВАЖНО

ИГРА 18+

pack

RePack

MK11

RePack

jed

RePack

fifa19

RePack

RDR2

RePack

NEED FOR SPEED™ PAYBACK

4 сезон

9 сезон

Бесстыжие 9 сезон

Все сериалы

все сериалы на PB.wtf

RePack

FAR CRY 5

Anonymous, добрый вечер, мы не успеваем до 1 числа собрать деньги на оплату серверов, помогите нам пожалуйста в это трудное время. В качестве благодарности мы отключим Вам всю рекламу на сайте (укажите свой ник в строку Ваше имя)!

×
  
Magnet ссылка

Почерк убийства / Stressed to Kill (Марк Сэвадж) [2016 г., Триллер, Драма, Комедия, Криминал, WEB-DLRip ] MVO piratbit.org

Почерк убийства через торрент piratbit.org

Размер: 1.46 GB | Добавлен: 4 года 10 мес. назад | Торрент скачан:284 раза
Скачать  

03-08-2016 06:22 Почерк убийства Скачать торрент  

Почерк убийства / Stressed to Kill
Год выпуска: 2016
Страна: США, Австралия / 120 Over 80, Delirium
Жанр: Триллер, Драма, Комедия, Криминал
Продолжительность: 01:41:13
Перевод: Многоголосый закадровый любительский

Режиссер: Марк Сэвадж

В ролях: Арманд Ассанте, Билл Оберст мл., Лэнс Тафельски, Тамара Остин, Маршал Хилтон, Соня Кертис, Дерек Робертс, Густаво Перез, Lynn Single, Чарльз Харрельсон

Описание: Чтобы уменьшить своё кровяное давление после сердечного приступа, человек начинает убивать людей, которые подвергают его стрессу.
IMDb: 4.90 (116)
Дата мировой премьеры: 27 мая 2016
Доп. информация: Реклама: Присутствует рекламный ролик вначале фильма

Качество: WEB-DLRip
Формат: AVI
Видео кодек: XviD
Аудио кодек: AC3
Видео: 720x400 (1.80:1), 23.976 fps, XviD build 50 ~1667 kbps avg, 0.24 bit/pixel
Аудио#1: 48 kHz, AC3 Dolby Digital, 3/2 (L,C,R,l,r) + LFE ch, ~384 kbps





Общее
Полное имя : D:\BitTorrent\po4erk_ubiystva.avi
Формат : AVI
Формат/Информация : Audio Video Interleave
Размер файла : 1,46 Гбайт
Продолжительность : 1 ч. 41 м.
Общий поток : 2061 Кбит/сек
Программа кодирования : VirtualDubMod 1.5.10.2 (build 2540/release)
Библиотека кодирования : VirtualDubMod build 2540/release

Видео
Идентификатор : 0
Формат : MPEG-4 Visual
Профиль формата : Advanced Simple@L5
Параметр BVOP формата : 2
Параметр QPel формата : Нет
Параметр GMC формата : Без точки перехода
Параметр матрицы формата : Default (MPEG)
Идентификатор кодека : XVID
Идентификатор кодека/Подсказка : XviD
Продолжительность : 1 ч. 41 м.
Битрейт : 1668 Кбит/сек
Ширина : 720 пикселей
Высота : 400 пикселей
Соотношение сторон : 16:9
Частота кадров : 23,976 (24000/1001) кадра/сек
Цветовое пространство : YUV
Субдискретизация насыщенности : 4:2:0
Битовая глубина : 8 бит
Тип развёртки : Прогрессивная
Метод сжатия : С потерями
Бит/(Пиксели*Кадры) : 0.242
Размер потока : 1,18 Гбайт (81%)
Библиотека кодирования : XviD 1.2.1 (UTC 2008-12-04)

Аудио
Идентификатор : 1
Формат : AC-3
Формат/Информация : Audio Coding 3
Расширение режима : CM (complete main)
Параметр Endianness формата : Big
Идентификатор кодека : 2000
Продолжительность : 1 ч. 41 м.
Вид битрейта : Постоянный
Битрейт : 384 Кбит/сек
Каналы : 6 каналов
Расположение каналов : Front: L C R, Side: L R, LFE
Частота : 48,0 КГц
Частота кадров : 31,250 кадров/сек (1536 spf)
Метод сжатия : С потерями
Размер потока : 278 Мбайт (19%)
Выравнивание : Разделение по промежуткам
Продолжительность промежутка : 42 мс. (1,00 видеокадр)
Время предзагрузки промежутка : 500 мс.

piratbit.org



Скачать Почерк убийства через торрент https://pic1.kartinco.top/images/10/xazeo.jpg Скачать фильм Почерк убийства через торрент бесплантно в хорошем качестве Описание: Чтобы уменьшить своё кровяное давление после сердечного приступа, человек начинает убивать людей, которые подвергают его ... 9.2 10 9
Торрент: Зарегистрирован [2016-08-03 06:22] · скачан: 284 раз
Статус: T временная
Размер: 1.46 GB
Как cкачать? Как скачать Почерк убийства через торрент | UTorrent

28-11-2019 20:33  

Отключить всю рекламу на сайте

    Дорогой пользователь! Огромная просьба, поблагодарите релизера, оцените раздачу и оставьте свои комментарий, если Вы скачали Почерк убийства через торрент бесплатно! Внесите свою лепту в развитие PiratBit!
    Комментировать посты могут только пользователи прошедшие не сложную регистрацию
    Показать сообщения:    

    Почерк убийства через торрент
    Скачать бесплатно Почерк убийства
    Почерк убийства скачать торрент
    Почерк убийства смотреть онлайн
    Cкачать фильм Почерк убийства бесплатно
    Почерк убийства скачать торрент в хорошем качестве
    Почерк убийства смотреть онлайн бесплатно в хорошем качестве


    Вы не можете начинать темы
    Вы не можете отвечать на сообщения
    Вы не можете редактировать свои сообщения
    Вы не можете удалять свои сообщения
    Вы не можете голосовать в опросах
    Вы не можете прикреплять файлы к сообщениям
    Вы можете скачивать файлы