1 сезон

3 сезон

iTunes

1

iTunes

DUB Netflix

iTunes

13

1 сезон

RePack

30

Deluxe

pack

Легкие деньги

ВАЖНО

ИГРА 18+

pack

RePack

MK11

RePack

jed

RePack

fifa19

RePack

RDR2

RePack

NEED FOR SPEED™ PAYBACK

4 сезон

9 сезон

Бесстыжие 9 сезон

Все сериалы

все сериалы на PB.wtf

RePack

FAR CRY 5

Anonymous, доброй ночи, мы не успеваем до 1 числа собрать деньги на оплату серверов, помогите нам пожалуйста в это трудное время. В качестве благодарности мы отключим Вам всю рекламу на сайте (укажите свой ник в строку Ваше имя)!

×
  
Magnet ссылка

Пеле: Рождение легенды / Pelé: Birth of a Legend (Джефф Цимбалист) [2016 г., драма, биография, спорт, HDRip, Дубляж "iTunes"] piratbit.org

Пеле: Рождение легенды через торрент piratbit.org

Размер: 2.05 GB | Добавлен: 4 года 10 мес. назад | Торрент скачан:582 раза
Скачать  

05-08-2016 18:20 Пеле: Рождение легенды Скачать торрент  

Пеле: Рождение легенды / Pelé: Birth of a Legend
Год выпуска: 2016
Страна: США / Imagine Entertainment, Seine Pictures, Zohar International
Жанр: драма, биография, спорт
Продолжительность: 01:47:05
Перевод: Дубляж (iTunes)

Режиссер: Джефф Цимбалист, Майкл Цимбалист




В ролях: Кевин де Паула, Леонардо Лима Карвальо, Сеу Жоржи, Мариана Нюнс, Милтон Гонсалвис, Сет Майклс, Винсент Д’Онофрио, Андре Маттос, Фил, Рафаэль Энрикес

Описание: Биографическая драма расскажет о закулисье спорта, в частности о жизни величайшего игрока в истории футбола — Пеле. Зрители станут свидетелями непростой жизни бразильской легенды спорта. Сколько преград тому удалось преодолеть на своем пути, чтобы добиться мировой популярности? Это сейчас он демонстрирует невероятные профессиональные достижения и вдобавок ко всему не забывает о благородных делах, но раньше все было по-другому. С ранних лет Пеле жаждал получить признание, неустанно шел к своей мечте, преодолевая препятствия, тем самым закаляя свой характер. Картина охватывает детство футболиста, вплоть до победы на первом этапе Кубка мира в Швеции, когда Пеле было семнадцать лет. Судьба не всегда была благосклонна к спортсмену, однако за каждой успешной личности стоит огромный труд, железная воля и твердая уверенность в собственных силах.

Качество: HDRip
Формат: AVI
Видео кодек: XviD
Аудио кодек: AC3
Видео: 720x304 (2.37:1), 23.976 fps, XviD build 50 ~2343 kbps avg, 0.45 bit/pixel
Аудио: 48 kHz, AC3 Dolby Digital, 3/2 (L,C,R,l,r) + LFE ch, ~384 kbps

Общее
Полное имя : F:\кино\Пеле. Рождение легенды.2016.D.HDRip.avi
Формат : AVI
Формат/Информация : Audio Video Interleave
Профиль формата : OpenDML
Размер файла : 2,05 Гбайт
Продолжительность : 1 ч. 47 м.
Общий поток : 2734 Кбит/сек
Программа кодирования : VirtualDubMod 1.5.10.3 | www.virtualdub-fr.org || (build 2550/release)
Библиотека кодирования : VirtualDubMod build 2550/release

Видео
Идентификатор : 0
Формат : MPEG-4 Visual
Профиль формата : Advanced Simple@L5
Параметр BVOP формата : 1
Параметр QPel формата : Нет
Параметр GMC формата : Без точки перехода
Параметр матрицы формата : Default (MPEG)
Идентификатор кодека : XVID
Идентификатор кодека/Подсказка : XviD
Продолжительность : 1 ч. 47 м.
Битрейт : 2338 Кбит/сек
Ширина : 720 пикселей
Высота : 304 пикселя
Соотношение сторон : 2,35:1
Частота кадров : 23,976 (23976/1000) кадра/сек
Цветовое пространство : YUV
Субдискретизация насыщенности : 4:2:0
Битовая глубина : 8 бит
Тип развёртки : Прогрессивная
Метод сжатия : С потерями
Бит/(Пиксели*Кадры) : 0.446
Размер потока : 1,75 Гбайт (86%)
Библиотека кодирования : XviD 1.2.1 (UTC 2008-12-04)

Аудио
Идентификатор : 1
Формат : AC-3
Формат/Информация : Audio Coding 3
Расширение режима : CM (complete main)
Параметр Endianness формата : Big
Идентификатор кодека : 2000
Продолжительность : 1 ч. 47 м.
Вид битрейта : Постоянный
Битрейт : 384 Кбит/сек
Каналы : 6 каналов
Расположение каналов : Front: L C R, Side: L R, LFE
Частота : 48,0 КГц
Частота кадров : 31,250 кадров/сек (1536 spf)
Метод сжатия : С потерями
Размер потока : 294 Мбайт (14%)
Выравнивание : Разделение по промежуткам
Продолжительность промежутка : 42 мс. (1,00 видеокадр)
Время предзагрузки промежутка : 500 мс.

piratbit.org



Скачать Пеле: Рождение легенды через торрент https://pic.kartinco.top/images/11/9s6bu.jpg Скачать фильм Пеле: Рождение легенды через торрент бесплантно в хорошем качестве Описание: Биографическая драма расскажет о закулисье спорта, в частности о жизни величайшего игрока в истории футбола — Пеле. Зрители ... 9.7 10 17
Торрент: Зарегистрирован [2016-08-05 18:28] · скачан: 582 раз
Статус: √ проверено
Размер: 2.05 GB
Как cкачать? Как скачать Пеле: Рождение легенды через торрент | UTorrent

% Раздел Тема Автор DL S | L
Фильмы 2016 [DVDrip, WEB-DLRip, HDrip] (DUB, MVO) [ 2 GB ] Пеле: Рождение легенды / Pelé: Birth of a Legend [2016 биография HDRip-AVC] [] от MediaBit Lithuania Скачать
2 | 0
Фильмы 2016 [DVDrip, WEB-DLRip, HDrip] (DUB, MVO) [ 1.46 GB ] Пеле: Рождение легенды / Pelé: Birth of a Legend [2016 биография BDRip] - [] Twi7ter Скачать
1 | 0
Фильмы (Blu-ray, BD-Remux, HDDVD) [ 27.89 GB ] Пеле: Рождение легенды / Pelé: Birth of a Legend [2016 биография Blu-Ray Remux 1080p] killermax2013 Скачать
1 | 0
Фильмы без перевода [ 3.68 GB ] Пеле: Рождение легенды / Pelé: Birth of a Legend [2016 биография WEB-DL 1080p] [ENG] killermax2013 Скачать
1 | 0

28-11-2019 20:33  

Отключить всю рекламу на сайте

05-08-2016 19:10 Пеле: Рождение легенды Скачать торрент  

Спасибо)piratbit.org



05-08-2016 22:27 Пеле: Рождение легенды Скачать торрент  

Величайший футболист всех времён)piratbit.org



06-08-2016 13:58 Пеле: Рождение легенды Скачать торрент  

piratbit.org



    Дорогой пользователь! Огромная просьба, поблагодарите релизера, оцените раздачу и оставьте свои комментарий, если Вы скачали Пеле: Рождение легенды через торрент бесплатно! Внесите свою лепту в развитие PiratBit!
    Комментировать посты могут только пользователи прошедшие не сложную регистрацию
    Показать сообщения:    

    Пеле: Рождение легенды через торрент
    Скачать бесплатно Пеле: Рождение легенды
    Пеле: Рождение легенды скачать торрент
    Пеле: Рождение легенды смотреть онлайн
    Cкачать фильм Пеле: Рождение легенды бесплатно
    Пеле: Рождение легенды скачать торрент в хорошем качестве
    Пеле: Рождение легенды смотреть онлайн бесплатно в хорошем качестве


    Вы не можете начинать темы
    Вы не можете отвечать на сообщения
    Вы не можете редактировать свои сообщения
    Вы не можете удалять свои сообщения
    Вы не можете голосовать в опросах
    Вы не можете прикреплять файлы к сообщениям
    Вы можете скачивать файлы