Доктор Стрэндж

Лицензия

Добыча

MVO

Дом дракона

1 сезон

Тор

Лицензия

Мэверик

Лицензия

Там, где раки поют

MVO

Властелин колец

1 сезон

Ultimate

pack

Рекомендуем

30

Repack

ВАЖНО

ВАЖНО

Ghostwire

RePack

jed

RePack

nioh2

RePack

RDR2

RePack

NEED FOR SPEED™ PAYBACK

RePack

скачать торрент

Кинопоиск HD

Острые козырьки 6 сезон

6 сезон

FAR CRY 6

RePack

скачать торрент

Лицензия

скачать торрент

MVO

1

1 сезон

скачать торрент

1 сезон

скачать торрент

Лицензия

  

Следы на снегу (Адольф Бергункер) [1955, СССР, боевик, криминал, приключения, SATRip от AVP Studio]

Следы на снегу через торрент piratbit.org

Размер: 1.09 GB | Добавлен: 6 лет 1 мес. назад | Торрент скачан:15 раз
Смотреть онлайн Следы на снегу | Скачать   

12-08-2016 08:05 Следы на снегу Скачать торрент  

Следы на снегу
Страна: СССР
Производство: Ленфильм

Жанр: боевик, криминал, приключения
Год выпуска: 1955
Продолжительность: 01:16:46

Перевод: Не требуется
Cубтитры: нет
Оригинальная аудиодорожка: русский

Режиссер: Адольф Бергункер

В ролях:
Владимир Краснопольский (II), Владимир Гусев, Евгения Тэн, Петр Решетников, Константин Адашевский, Олег Жаков, Михаил Медведев...
Полный список актёров

Описание:
По одноименной повести Георгия Брянцева.
Послевоенные годы. Якут-охотник Быкадыров обнаруживает в тайге таинственные следы, ведущие в поселок, где только что совершено убийство начальника геологической экспедиции. Для расследования преступления из Москвы приезжает группа сотрудников госбезопасности. Боясь разоблачения, диверсанты покидают поселок и бегут к условленному месту. Оперативной группе удается задержать убийц и экипаж прилетевшего за ними самолета.

Источник: DVB
Качество видео: SATRip
Формат видео: AVI

Видео: 688x512 (4:3), 25 fps, XviD ~ 1827 kbps avg, 0.207 bit/pixel
Аудио: 48 kHz, Dolby Digital AC3 2.0, 192 kbps

Раздача от:
Общее
Полное имя : Sledy.na.snegu.1955.SATRip_[New-team]_by_AVP_Studio.avi
Формат : AVI
Формат/Информация : Audio Video Interleave
Размер файла : 1,09 Гбайт
Продолжительность : 1 ч. 16 м.
Общий поток : 2029 Кбит/сек
Программа кодирования : VirtualDubMod 1.5.10.3 | www.virtualdub-fr.org || (build 2550/release)
Библиотека кодирования : VirtualDubMod build 2550/release

Видео
Идентификатор : 0
Формат : MPEG-4 Visual
Профиль формата : Advanced Simple@L5
Параметр BVOP формата : 1
Параметр QPel формата : Нет
Параметр GMC формата : Без точки перехода
Параметр матрицы формата : Выборочная
Идентификатор кодека : XVID
Идентификатор кодека/Подсказка : XviD
Продолжительность : 1 ч. 16 м.
Битрейт : 1827 Кбит/сек
Ширина : 688 пикселей
Высота : 512 пикселей
Соотношение сторон : 4:3
Частота кадров : 25,000 кадров/сек
Цветовое пространство : YUV
Субдискретизация насыщенности : 4:2:0
Битовая глубина : 8 бит
Тип развёртки : Прогрессивная
Метод сжатия : С потерями
Бит/(Пиксели*Кадры) : 0.207
Размер потока : 1003 Мбайт (90%)
Библиотека кодирования : XviD 1.2.1 (UTC 2008-12-04)

Аудио
Идентификатор : 1
Формат : AC-3
Формат/Информация : Audio Coding 3
Расширение режима : CM (complete main)
Параметр Endianness формата : Big
Идентификатор кодека : 2000
Продолжительность : 1 ч. 16 м.
Вид битрейта : Постоянный
Битрейт : 192 Кбит/сек
Каналы : 2 канала
Расположение каналов : Front: L R
Частота : 48,0 КГц
Частота кадров : 31,250 кадров/сек (1536 spf)
Метод сжатия : С потерями
Размер потока : 105 Мбайт (9%)
Выравнивание : Разделение по промежуткам
Продолжительность промежутка : 40 мс. (1,00 видеокадр)
Время предзагрузки промежутка : 500 мс



Скачать Следы на снегу через торрент http://s017.radikal.ru/i401/1608/61/7f75cbb3dec1.png Скачать, смотреть онлайн Следы на снегу бесплантно в хорошем качестве Описание:По одноименной повести Георгия Брянцева.Послевоенные годы. Якут-охотник Быкадыров обнаруживает в тайге таинственные следы, ведущие ... 10 10 1
Info! Золотая раздача, скачанное не засчитывается.
Торрент: Зарегистрирован [2016-08-12 08:05] · скачан: 15 раз
Статус: √ проверено
Размер: 1.09 GB
Как cкачать? Как скачать Следы на снегу через торрент | UTorrent

% Раздел Тема Автор DL S | L
Кино СССР [ 1.09 GB ] Следы на снегу | | SATRip-AVC от AVP Studio AVP Studio Скачать
1 | 0
Кино СССР [ 744 MB ] Следы на снегу | | SATRip от AVP Studio AVP Studio Скачать
1 | 0

28-11-2019 20:33  

Отключить вcю реклaмy на сайте

    Дорогой пользователь! Огромная просьба, поблагодарите релизера, оцените раздачу и оставьте свои комментарий, если Вы скачали Следы на снегу через торрент бесплатно!!
    Комментировать посты могут только пользователи прошедшие не сложную регистрацию
    Показать сообщения:    


    Следы на снегу через торрент
    Скачать бесплатно Следы на снегу
    Следы на снегу скачать торрент
    Следы на снегу смотреть онлайн
    Cкачать фильм Следы на снегу бесплатно
    Следы на снегу скачать торрент в хорошем качестве
    Следы на снегу смотреть онлайн бесплатно в хорошем качестве
    Вы не можете начинать темы
    Вы не можете отвечать на сообщения
    Вы не можете редактировать свои сообщения
    Вы не можете удалять свои сообщения
    Вы не можете голосовать в опросах
    Вы не можете прикреплять файлы к сообщениям
    Вы можете скачивать файлы