1 сезон

3 сезон

iTunes

1

iTunes

DUB Netflix

iTunes

13

1 сезон

RePack

30

Deluxe

pack

Легкие деньги

ВАЖНО

ИГРА 18+

pack

RePack

MK11

RePack

jed

RePack

fifa19

RePack

RDR2

RePack

NEED FOR SPEED™ PAYBACK

4 сезон

9 сезон

Бесстыжие 9 сезон

Все сериалы

все сериалы на PB.wtf

RePack

FAR CRY 5

Anonymous, добрый день, мы не успеваем до 1 числа собрать деньги на оплату серверов, помогите нам пожалуйста в это трудное время. В качестве благодарности мы отключим Вам всю рекламу на сайте (укажите свой ник в строку Ваше имя)!

×
  
Magnet ссылка

Книга джунглей / The Jungle Book (Джон Фавро) [2016 г., фэнтези, драма, приключения, семейный, HDRip, Дубляж "BD CEE"] piratbit.org

Книга джунглей через торрент piratbit.org

Размер: 2.18 GB | Добавлен: 4 года 9 мес. назад | Торрент скачан:245 раз
Скачать  

12-08-2016 17:21 Книга джунглей Скачать торрент  

Книга джунглей / The Jungle Book
Год выпуска: 2016
Страна: Великобритания,США / Fairview Entertainment, Moving Picture Company (MPC), Walt Disney Pictures
Жанр: фэнтези, драма, приключения, семейный
Продолжительность: 01:45:54
Перевод: Дубляж (BD CEE)

Режиссер: Джон Фавро




В ролях: Скарлетт Йоханссон, Идрис Эльба, Билл Мюррей, Бен Кингсли, Кристофер Уокен, Джанкарло Эспозито, Лупита Нионго Эмджей, Энтони, Нил Сетхи, Брэндон Хеншель

Описание: Непримиримая борьба с опасным и внушающим страх тигром Шерханом вынуждает Маугли покинуть волчью стаю и отправиться в захватывающее путешествие. На пути мальчика ждут удивительные открытия и запоминающиеся встречи с пантерой Багирой, медведем Балу, питоном Каа и другими обитателями дремучих джунглей.

Качество: HDRip
Формат: AVI
Видео кодек: XviD
Аудио кодек: AC3
Видео: 720x384 (1.88:1), 23.976 fps, XviD build 50 ~2486 kbps avg, 0.38 bit/pixel
Аудио: 48 kHz, AC3 Dolby Digital, 3/2 (L,C,R,l,r) + LFE ch, ~448 kbps

Общее
Полное имя : F:\кино\Книга джунглей .2016.D.HDRip.avi
Формат : AVI
Формат/Информация : Audio Video Interleave
Профиль формата : OpenDML
Размер файла : 2,18 Гбайт
Продолжительность : 1 ч. 45 м.
Общий поток : 2941 Кбит/сек
Программа кодирования : VirtualDubMod 1.5.10.3 | www.virtualdub-fr.org || (build 2550/release)
Библиотека кодирования : VirtualDubMod build 2550/release

Видео
Идентификатор : 0
Формат : MPEG-4 Visual
Профиль формата : Advanced Simple@L5
Параметр BVOP формата : 1
Параметр QPel формата : Нет
Параметр GMC формата : Без точки перехода
Параметр матрицы формата : Default (MPEG)
Идентификатор кодека : XVID
Идентификатор кодека/Подсказка : XviD
Продолжительность : 1 ч. 45 м.
Битрейт : 2481 Кбит/сек
Ширина : 720 пикселей
Высота : 384 пикселя
Соотношение сторон : 1,85:1
Частота кадров : 23,976 (23976/1000) кадра/сек
Цветовое пространство : YUV
Субдискретизация насыщенности : 4:2:0
Битовая глубина : 8 бит
Тип развёртки : Прогрессивная
Метод сжатия : С потерями
Бит/(Пиксели*Кадры) : 0.374
Размер потока : 1,84 Гбайт (84%)
Библиотека кодирования : XviD 1.2.1 (UTC 2008-12-04)

Аудио
Идентификатор : 1
Формат : AC-3
Формат/Информация : Audio Coding 3
Расширение режима : CM (complete main)
Параметр Endianness формата : Big
Идентификатор кодека : 2000
Продолжительность : 1 ч. 45 м.
Вид битрейта : Постоянный
Битрейт : 448 Кбит/сек
Каналы : 6 каналов
Расположение каналов : Front: L C R, Side: L R, LFE
Частота : 48,0 КГц
Частота кадров : 31,250 кадров/сек (1536 spf)
Метод сжатия : С потерями
Размер потока : 339 Мбайт (15%)
Выравнивание : Разделение по промежуткам
Продолжительность промежутка : 42 мс. (1,00 видеокадр)
Время предзагрузки промежутка : 500 мс

piratbit.org



Скачать Книга джунглей через торрент https://pic.kartinco.top/images/11/dsdpm.jpg Скачать фильм Книга джунглей через торрент бесплантно в хорошем качестве Описание: Непримиримая борьба с опасным и внушающим страх тигром Шерханом вынуждает Маугли покинуть волчью стаю и отправиться в ... 9.3 10 28
Info! Золотая раздача, скачанное не засчитывается.
Торрент: Зарегистрирован [2016-08-28 18:20] · скачан: 245 раз
Статус: √ проверено
Размер: 2.18 GB
Как cкачать? Как скачать Книга джунглей через торрент | UTorrent

% Раздел Тема Автор DL S | L
Ultra HD (UHD: 2K, 4K, 8K) — видео сверхвысокой чёткости [ 52.52 GB ] Книга джунглей / The Jungle Book [2016 UHD BDRemux 2160p] DUB [] + AVO [Ю. Сербин] sheker187 Скачать
1 | 0
Ultra HD (UHD: 2K, 4K, 8K) — видео сверхвысокой чёткости [ 27.64 GB ] Книга джунглей / The Jungle Book [2016 UHD BDRip 2160p ] DUB [] +AVO [Ю.Сербин] bober100 Скачать
1 | 0
Ultra HD (UHD: 2K, 4K, 8K) — видео сверхвысокой чёткости [ 52.05 GB ] Книга джунглей / The Jungle Book [2016 UHD BDRemux 2160p] DUB [] bober100 Скачать
1 | 0
Ultra HD (UHD: 2K, 4K, 8K) — видео сверхвысокой чёткости [ 14.34 GB ] Книга джунглей / The Jungle Book [2016 UHD BDRip 2160p] DUB [] bober100 Скачать
1 | 0
3D Фильмы [ 15.55 GB ] Книга джунглей 3Д / The Jungle Book 3D [2016 BDRip 1080p] [Half OverUnder / Вертикальная анаморфная стереопара] DUB [] bober100 Скачать
1 | 0
Фильмы [HD 720p, 1080p] (Хороший звук DUB, MVO) [ 7.18 GB ] Книга джунглей / The Jungle Book [2016 BDRip-HEVC 1080p] DUB [] bober100 Скачать
1 | 0
Фильмы [HD 720p, 1080p] (Хороший звук DUB, MVO) [ 11.82 GB ] Книга джунглей / The Jungle Book [2016 BDRip 1080p [] smaster Скачать
1 | 0


Последний раз редактировалось: coc900 (2016-08-28 18:20), всего редактировалось 1 раз

28-11-2019 20:33  

Отключить всю рекламу на сайте

13-08-2016 01:58 Книга джунглей Скачать торрент  

Фильм для семейного просмотра самое то)piratbit.org



13-08-2016 09:45 Книга джунглей Скачать торрент  

у пендосов талант делать отвратительные экранизации отличных книг. фильм бездушный и не оставляет никакого хорошего впечатления. если хотите посмотреть с детьми, то лучше покажите им советский мультфильм про маугли. не тратьте время на этот мусор, не имеющий ничего общего с книгойpiratbit.org



13-08-2016 17:05 Книга джунглей Скачать торрент  

у пендосов талант делать отвратительные экранизации отличных книг. фильм бездушный и не оставляет никакого хорошего впечатления. если хотите посмотреть с детьми, то лучше покажите им советский мультфильм про маугли. не тратьте время на этот мусор, не имеющий ничего общего с книгой

Согласен!piratbit.org



17-08-2016 17:20 Книга джунглей Скачать торрент  

Картинка красивая, звери нарисованы реалистично, но слишком реалистично, до нереальности.. И драматургия- НОЛЬ. В советском мульте про маугли переживаний было в 1000 раз больше.
В итоге- картинка супер, постановка -говно.
Фильм для просмотра с детьми. Только.
ИМХОpiratbit.org



28-08-2016 18:23 Книга джунглей Скачать торрент  

Релиз обновлен ! Просьба перекачать торрент файл piratbit.org



    Дорогой пользователь! Огромная просьба, поблагодарите релизера, оцените раздачу и оставьте свои комментарий, если Вы скачали Книга джунглей через торрент бесплатно! Внесите свою лепту в развитие PiratBit!
    Комментировать посты могут только пользователи прошедшие не сложную регистрацию
    Показать сообщения:    

    Книга джунглей через торрент
    Скачать бесплатно Книга джунглей
    Книга джунглей скачать торрент
    Книга джунглей смотреть онлайн
    Cкачать фильм Книга джунглей бесплатно
    Книга джунглей скачать торрент в хорошем качестве
    Книга джунглей смотреть онлайн бесплатно в хорошем качестве


    Вы не можете начинать темы
    Вы не можете отвечать на сообщения
    Вы не можете редактировать свои сообщения
    Вы не можете удалять свои сообщения
    Вы не можете голосовать в опросах
    Вы не можете прикреплять файлы к сообщениям
    Вы можете скачивать файлы