1 сезон

3 сезон

iTunes

1

iTunes

MVO

iTunes

13

1 сезон

RePack

30

Deluxe

pack

Лицензия

ВАЖНО

ИГРА 18+

pack

RePack

MK11

RePack

jed

RePack

fifa19

RePack

RDR2

RePack

NEED FOR SPEED™ PAYBACK

4 сезон

9 сезон

Бесстыжие 9 сезон

Все сериалы

все сериалы на PB.wtf

RePack

FAR CRY 5

Anonymous, добрый вечер, мы катастрофически не успеваем собрать деньги на оплату серверов, помогите нам пожалуйста 5,10,15р., для нас важна любая помощь . В качестве благодарности мы отключим Вам всю рекламу на сайте (укажите свой ник в строку Ваше имя)!

×
  
Magnet ссылка

Икона / Icon (Чарльз Мартин Смит) [2005 г., триллер, DVDRip, Профессиональный (многоголосый)] piratbit.org

Икона через торрент piratbit.org

Размер: 2.17 GB | Добавлен: 4 года 11 мес. назад | Торрент скачан:0 раз
Скачать  

13-08-2016 09:27 Икона Скачать торрент  


Икона / Icon
Год выпуска: 2005
Страна: США
Жанр: триллер
Продолжительность: 02:42:41
Перевод: Профессиональный (многоголосый)
Субтитры: Отсутствуют

Режиссер: Чарльз Мартин Смит
Продюссер: Пэт Пич, Брайан Гордон, Роберт Холми мл
Сценарий: Фредерик Форсайт, Адам Армус, Нора Кэй Фостер

Премьера в мире: 30 мая 2005

лицам до 17 лет обязательно присутствие взрослого
http://www.imdb.com/title/tt0424176/



В ролях: Патрик Суэйзи, Патрик Берджин, Майкл Йорк, Анника Питерсон, Бен Кросс, Джефф Фэйи, Джосс Акленд, Стив Спайрс, Нико Никотера, Валентин Ганев, Барри Морс, Том Влашиха, Теодор Данетти

Описание: Действие фильма разворачивается в Москве. Из секретной лаборатории похищен образец опасного вируса, бактериологическое оружие, способное при небольшой концентрации уничтожить большое количество людей неславянской национальности. Выясняется, что в этом замешан кандидат в президенты Игорь Комаров, который активно борется за победу в выборах с генералом Николаевым. Тайный агент, американец Монк (Патрик Суэйзи) приезжает в Россию, чтобы помешать Комарову занять важнейший пост и раскрыть его преступление. В расследовании ему помогает агент ФСБ Соня Астрова (Анника Петерсон).

Качество: DVDRip
Формат: AVI
Видео кодек: XviD
Аудио кодек: AC3
Видео: 720x400 (1.80:1), 25 fps, XviD MPEG-4 ~1509 kbps avg, 0.21 bit/pixel
Аудио#1: Русский: 48.0 kHz, AC3 Dolby Digital, 2/0 (L,R) ch, ~192 kbps Профессиональный (многоголосый закадровый)
Аудио#2: Английский: 48.0 kHz, AC3 Dolby Digital, 2/0 (L,R) ch, ~192 kbps Оригинал
скриншот  скриншот  скриншот  скриншот  скриншот  скриншот  

Код:

Общее
Полное имя : D:Икона
Формат : AVI
Формат/Информация : Audio Video Interleave
Профиль формата : OpenDML
Размер файла : 2,17 Гбайт
Продолжительность : 2 ч. 42 м.
Общий поток : 1911 Кбит/сек
Программа кодирования : VirtualDubMod 1.5.10.2 (build 2540/release)
Библиотека кодирования : VirtualDubMod build 2540/release

Видео
Идентификатор : 0
Формат : MPEG-4 Visual
Профиль формата : Advanced Simple@L5
Параметр BVOP формата : 2
Параметр QPel формата : Нет
Параметр GMC формата : Без точки перехода
Параметр матрицы формата : Default (H.263)
Режим смешивания : Сжатый битовый поток
Идентификатор кодека : XVID
Идентификатор кодека/Подсказка : XviD
Продолжительность : 2 ч. 42 м.
Битрейт : 1509 Кбит/сек
Ширина : 720 пикселей
Высота : 400 пикселей
Соотношение сторон : 16:9
Частота кадров : 25,000 кадров/сек
Цветовое пространство : YUV
Субдискретизация насыщенности : 4:2:0
Битовая глубина : 8 бит
Тип развёртки : Прогрессивная
Метод сжатия : С потерями
Бит/(Пиксели*Кадры) : 0.210
Размер потока : 1,71 Гбайт (79%)
Библиотека кодирования : XviD 1.2.1 (UTC 2008-12-04)

Аудио #1
Идентификатор : 1
Формат : AC-3
Формат/Информация : Audio Coding 3
Расширение режима : CM (complete main)
Параметр Endianness формата : Big
Идентификатор кодека : 2000
Продолжительность : 2 ч. 42 м.
Вид битрейта : Постоянный
Битрейт : 192 Кбит/сек
Каналы : 2 канала
Расположение каналов : Front: L R
Частота : 48,0 КГц
Битовая глубина : 16 бит
Метод сжатия : С потерями
Задержка видео : 750 мс.
Размер потока : 223 Мбайт (10%)
Выравнивание : Разделение по промежуткам
Продолжительность промежутка : 40 мс. (1,00 видеокадр)
Время предзагрузки промежутка : 500 мс.

Аудио #2
Идентификатор : 2
Формат : AC-3
Формат/Информация : Audio Coding 3
Расширение режима : CM (complete main)
Параметр Endianness формата : Big
Идентификатор кодека : 2000
Продолжительность : 2 ч. 42 м.
Вид битрейта : Постоянный
Битрейт : 192 Кбит/сек
Каналы : 2 канала
Расположение каналов : Front: L R
Частота : 48,0 КГц
Битовая глубина : 16 бит
Метод сжатия : С потерями
Размер потока : 223 Мбайт (10%)
Выравнивание : Разделение по промежуткам
Продолжительность промежутка : 40 мс. (1,00 видеокадр)
Время предзагрузки промежутка : 500 мс.


piratbit.org



Скачать Икона через торрент http://poto.tvket.ru/mari/22/c4d17231c7c7237df436e25856998fc0.jpg Скачать фильм Икона через торрент бесплантно в хорошем качестве Описание: Действие фильма разворачивается в Москве. Из секретной лаборатории похищен образец опасного вируса, бактериологическое оружие, ... 10 10 3
Торрент: Зарегистрирован [2016-08-13 09:27] · скачан: 0 раз
Статус: √ проверено
Размер: 2.17 GB
Как cкачать? Как скачать Икона через торрент | UTorrent

% Раздел Тема Автор DL S | L
Гонзо [ 1.41 GB ] Анальные Иконы / Anal Icons [2021 Anal Big Butt Big Cocks Blowjobs Double Penetration Erotic Vignette Gonzo Lingerie Orgy Shaved Threesomes WEB-DL] bashai5 Скачать
4 | 0
Этнические порно фильмы [ 2.44 GB ] Чёрная Икона 14 / Interracial Icon 14 [2020 All Sex Threesome Interracial WEB-DL] bashai5 Скачать
1 | 0
Порно фильмы без сюжета [ 2.28 GB ] Иконы 4 / Icons Vol. 4 [2020 All Sex Big Boobs Big Booty Gonzo WEB-DL] bashai5 Скачать
1 | 0
Гонзо [ 2.51 GB ] Иконы 3 / Icons Vol. 3 [2019 All Sex Oral Gonzo Facial Older Men Squirting WEB-DLRip] sheker187 Скачать
1 | 0
Этнические порно фильмы [ 2.15 GB ] Чёрная Икона 13 / Interracial Icon 13 [2019 All Sex Big Cocks Interracial WEB-DL] bashai5 Скачать
1 | 0
Этнические порно фильмы [ 2.33 GB ] Чёрная Икона 11 / Interracial Icon 11 [2019 All Sex Big Cocks Interracial WEB-DL] bashai5 Скачать
1 | 0
Гонзо [ 2.8 GB ] Иконы No. 1 / Icons No. 1 [2018 All Sex Oral Gonzo Facial Couples WEB-DLRip] Split Scenes sheker187 Скачать
1 | 0

28-11-2019 20:33  

Отключить всю рекламу на сайте

    Дорогой пользователь! Огромная просьба, поблагодарите релизера, оцените раздачу и оставьте свои комментарий, если Вы скачали Икона через торрент бесплатно! Внесите свою лепту в развитие PiratBit!
    Комментировать посты могут только пользователи прошедшие не сложную регистрацию
    Показать сообщения:    

    Икона через торрент
    Скачать бесплатно Икона
    Икона скачать торрент
    Икона смотреть онлайн
    Cкачать фильм Икона бесплатно
    Икона скачать торрент в хорошем качестве
    Икона смотреть онлайн бесплатно в хорошем качестве


    Вы не можете начинать темы
    Вы не можете отвечать на сообщения
    Вы не можете редактировать свои сообщения
    Вы не можете удалять свои сообщения
    Вы не можете голосовать в опросах
    Вы не можете прикреплять файлы к сообщениям
    Вы можете скачивать файлы