Ссылка на приватное зеркало нашего сайта всего за 1$. Внимание количество ограничено!!!

2 сезон

iTunes

iTunes

1

iTunes

iTunes

iTunes

WEBRip

iTunes

30
pack

Забери бонус

ВАЖНО

!!Акция!!

Alien_RageХит недели

RePack

RESIDENT EVIL 3: NEMESIS REMAKE

ИГРА 18+

pack

RePack

jed

!!Акция!!

Alien_Rage

RePack

fifa19

RePack

Assassins Creed: Odyssey

RePack

NEED FOR SPEED™ PAYBACK

4 сезон

9 сезон

Бесстыжие 9 сезон

Все сериалы

все сериалы на PB.wtf

RePack

FAR CRY 5
  

Зеркала / Mirrors (Александр Ажа) [2008 г., ужасы, детектив, HDRip, Профессиональный (полное дублирование)] Расширенная версия piratbit.org

Зеркала через торрент piratbit.org

Размер: 749 MB | Добавлен: 4 года 1 мес. назад | Торрент скачан:55 раз
Скачать  

13-08-2016 19:58 Зеркала Скачать торрент  

Зеркала / MirrorsГод выпуска: 2008
Страна: США, Румыния, Германия
Жанр: ужасы, детектив
Продолжительность: 01:51:12
Перевод: Профессиональный (полное дублирование)
Субтитры: Отсутствуют

Режиссер: Александр Ажа
Продюссер: Грегори Левассёр, Александра Милчэн, Марк Штернберг
Сценарий: Александр Ажа, Грегори Левассёр, Ким Сон-хо

Бюджет: $35 000 000
Премьера в мире: 14 августа 2008

лицам до 18 лет обязательно присутствие взрослого
http://www.imdb.com/title/tt0790686/



В ролях: Кифер Сазерленд, Паула Паттон, Камерон Бойс, Эрика Глюк, Эми Смарт, Мэри Бет Пейл, Джон Шрэпнел, Джейсон Флеминг, Тим Ахерн, Джулиан Гловер

Описание: Бен Карсон знавал времена и получше. Уже прошел почти год с тех пор как неуравновешенного детектива отстранили от работы в Полицейском управлении г. Нью-Йорка за убийство другого сотрудника спецслужбы, несчастный случай, который не только стоил ему работы, но и пробудил в нем тягу к алкоголю и агрессивность, из-за чего жена и дети отдалились от него, а сам он нашел пристанище на диване в квартире своей сестры в Куинс.
Потеряв надежду вернуться к нормальной жизни и воссоединиться с семьей, Карсон нанимается на работу ночным сторожем выгоревших руин универмага «Mayflower». То, что когда-то было символом процветания и роскоши, теперь медленно разрушается в темноте, как загнивающий корабль-призрак, разоренный гигантским пожаром, поглотившим множество невинных жизней.
Когда Карсон обходит дозором свои владения, обугленные развалины универмага, он начинает замечать что-то зловещее в декоративных зеркалах, украшающих стены «Mayflower». В огромных мерцающих стеклах отражаются страшные, потрясающие Карсона образы…

Качество: HDRip
Формат: AVI
Видео кодек: XviD
Аудио кодек: AC3
Видео: 640x272 (2.35:1), 23.976 fps, XviD build 73 ~803 kbps avg, 0.19 bit/pixel
Аудио#1: 48 kHz, MPEG Layer 3, 2 ch, ~128.00 kbps avg
скриншот  скриншот  скриншот  скриншот  





Код:

General
Complete name                            : E:\Mirrors.Unrated.2008_HDRip.avi
Format                                   : AVI
Format/Info                              : Audio Video Interleave
File size                                : 749 MiB
Duration                                 : 1h 51mn
Overall bit rate                         : 941 Kbps
Writing application                      : VirtualDubMod 1.5.10.3 | www.virtualdub-fr.org || (build 2550/release)
Writing library                          : VirtualDubMod build 2550/release

Video
ID                                       : 0
Format                                   : MPEG-4 Visual
Format profile                           : Advanced Simple@L5
Format settings, BVOP                    : 1
Format settings, QPel                    : No
Format settings, GMC                     : No warppoints
Format settings, Matrix                  : Custom
Codec ID                                 : XVID
Codec ID/Hint                            : XviD
Duration                                 : 1h 51mn
Bit rate                                 : 803 Kbps
Width                                    : 640 pixels
Height                                   : 272 pixels
Display aspect ratio                     : 2.35:1
Frame rate                               : 23.976 fps
Color space                              : YUV
Chroma subsampling                       : 4:2:0
Bit depth                                : 8 bits
Scan type                                : Progressive
Compression mode                         : Lossy
Bits/(Pixel*Frame)                       : 0.192
Stream size                              : 640 MiB (85%)
Writing library                          : XviD 73

Audio
ID                                       : 1
Format                                   : MPEG Audio
Format version                           : Version 1
Format profile                           : Layer 3
Codec ID                                 : 55
Codec ID/Hint                            : MP3
Duration                                 : 1h 51mn
Bit rate mode                            : Constant
Bit rate                                 : 128 Kbps
Channel count                            : 2 channels
Sampling rate                            : 48.0 KHz
Compression mode                         : Lossy
Stream size                              : 102 MiB (14%)
Alignment                                : Aligned on interleaves
Interleave, duration                     : 42 ms (1.00 video frame)
Interleave, preload duration             : 504 ms
Writing library                          : LAME3.99r
Encoding settings                        : -m s -V 4 -q 2 -lowpass 17 -b 128


piratbit.org



Скачать Зеркала через торрент http://image.kinoprofi.net/p/2015-03/400x600/1425328418_zerkala-2008.jpg Скачать фильм Зеркала через торрент бесплантно в хорошем качестве Описание: Бен Карсон знавал времена и получше. Уже прошел почти год с тех пор как неуравновешенного детектива отстранили от работы в ... 10 10 3
Торрент: Зарегистрирован [2016-08-13 19:58] · скачан: 55 раз
Статус: √ проверено
Размер: 749 MB
Как cкачать? Как скачать Зеркала через торрент | qTorrent

28-11-2019 20:33  

Отключить всю рекламу на сайте

14-08-2016 01:35 Зеркала Скачать торрент  

фильм очень сильный-всем к просмотруpiratbit.org



14-08-2016 02:23 Зеркала Скачать торрент  

Побольше таких ужастиков)а вторая часть будет?piratbit.org



14-08-2016 03:20 Зеркала Скачать торрент  

СТАРЕНЬКИЙ,но один из лучших фильмов в своем жанре))piratbit.org



14-08-2016 03:29 Зеркала Скачать торрент  

bober100 писал(а):

Побольше таких ужастиков)а вторая часть будет?

есть,но до 1 части этому фильму далеко---Зеркала 2 / Mirrors 2 (Виктор Гарсия / Victor Garcia) [2010, Ужасы, триллер, детективpiratbit.org



14-08-2016 05:19 Зеркала Скачать торрент  

dimdim80, спасибо но я смотрел обе части первая мне тоже больше понравилась)piratbit.org



    Дорогой пользователь! Огромная просьба, поблагодарите релизера, оцените раздачу и оставьте свои комментарий, если Вы скачали Зеркала через торрент бесплатно! Внесите свою лепту в развитие PiratBit!
    Комментировать посты могут только пользователи прошедшие не сложную регистрацию
    Показать сообщения:    

    Зеркала через торрент
    Скачать бесплатно Зеркала
    Зеркала скачать торрент
    Зеркала смотреть онлайн
    Cкачать фильм Зеркала бесплатно
    Зеркала скачать торрент в хорошем качестве
    Зеркала смотреть онлайн бесплатно в хорошем качестве


    Вы не можете начинать темы
    Вы не можете отвечать на сообщения
    Вы не можете редактировать свои сообщения
    Вы не можете удалять свои сообщения
    Вы не можете голосовать в опросах
    Вы не можете прикреплять файлы к сообщениям
    Вы можете скачивать файлы