1 сезон

3 сезон

iTunes

1

iTunes

MVO

iTunes

13

1 сезон

RePack

30

Deluxe

pack

Лицензия

ВАЖНО

ИГРА 18+

pack

RePack

MK11

RePack

jed

RePack

fifa19

RePack

RDR2

RePack

NEED FOR SPEED™ PAYBACK

4 сезон

9 сезон

Бесстыжие 9 сезон

Все сериалы

все сериалы на PB.wtf

RePack

FAR CRY 5

Anonymous, добрый день, мы катастрофически не успеваем собрать деньги на оплату серверов, помогите нам пожалуйста 5,10,15р., для нас важна любая помощь . В качестве благодарности мы отключим Вам всю рекламу на сайте (укажите свой ник в строку Ваше имя)!

×
  
Magnet ссылка

Их глаза видели Бога / Their Eyes Were Watching God (Дарнелл Мартин) [2005 г., драма, мелодрама, DVDRip, Профессиональный (многоголосый)] piratbit.org

Их глаза видели Бога через торрент piratbit.org

Размер: 1.46 GB | Добавлен: 4 года 11 мес. назад | Торрент скачан:38 раз
Скачать  

15-08-2016 17:55 Их глаза видели Бога Скачать торрент  

Их глаза видели Бога / Their Eyes Were Watching God Год выпуска: 2005
Страна: США
Жанр: драма, мелодрама
Продолжительность: 01:47:30
Перевод: Профессиональный (многоголосый)
Субтитры: Отсутствуют

Режиссер: Дарнелл Мартин
Продюссер: Мэттью Карлайл, Кейт Форте, Куинси Джонс
Сценарий: Зора Нил Херстон, Сьюзен-Лори Паркс, Мисан Сагай

Премьера в мире: 6 марта 2005

лицам до 17 лет обязательно присутствие взрослого
http://imdb.snick.ru/movie/tt0406265



В ролях: Холли Берри, Рубен Сантьяго-Хадсон, Майкл Или, Ники Мишо, Лоррейн Туссен, Руби Ди, Терренс Ховард, Гэбриел Коссес, Артел Каяру, Кевин Дэниелс

Описание: В шестнадцать лет Дженни Старкс вышла замуж за фермера — человека состоятельного, но намного старше себя: такова была воля бабушки. Вторым её мужем стал мэр маленького городка. Оба брака были неудачными. Но судьба подарила Дженни встречу с молодым бесшабашным парнем Кексом. Она страстно влюбилась и, бросив все, поехала с ним искать свое счастье…

Качество: DVDRip
Формат: AVI
Видео кодек: XviD
Аудио кодек: AC3
Видео: 720x400 (1.80:1), 25 fps, XviD MPEG-4 ~1745 kbps avg, 0.24 bit/pixel
Аудио#1: 48 kHz, AC3 Dolby Digital, 2/0 (L,R) ch, ~192 kbps avg
скриншот  скриншот  скриншот  скриншот  скриншот  скриншот  скриншот  

Код:

General
Complete name                            : C:\Users\ghdf\Desktop\Их глаза видели БОГА.avi
Format                                   : AVI
Format/Info                              : Audio Video Interleave
File size                                : 1.46 GiB
Duration                                 : 1h 47mn
Overall bit rate                         : 1 947 Kbps
Writing application                      : VirtualDubMod 1.5.10.2 (build 2542/release)
Writing library                          : VirtualDubMod build 2542/release

Video
ID                                       : 0
Format                                   : MPEG-4 Visual
Format profile                           : Advanced Simple@L5
Format settings, BVOP                    : 2
Format settings, QPel                    : No
Format settings, GMC                     : No warppoints
Format settings, Matrix                  : Default (H.263)
Muxing mode                              : Packed bitstream
Codec ID                                 : XVID
Codec ID/Hint                            : XviD
Duration                                 : 1h 47mn
Bit rate                                 : 1 746 Kbps
Width                                    : 720 pixels
Height                                   : 400 pixels
Display aspect ratio                     : 16:9
Frame rate                               : 25.000 fps
Color space                              : YUV
Chroma subsampling                       : 4:2:0
Bit depth                                : 8 bits
Scan type                                : Progressive
Compression mode                         : Lossy
Bits/(Pixel*Frame)                       : 0.242
Stream size                              : 1.31 GiB (90%)
Writing library                          : XviD 1.2.1 (UTC 2008-12-04)

Audio
ID                                       : 1
Format                                   : AC-3
Format/Info                              : Audio Coding 3
Mode extension                           : CM (complete main)
Format settings, Endianness              : Big
Codec ID                                 : 2000
Duration                                 : 1h 47mn
Bit rate mode                            : Constant
Bit rate                                 : 192 Kbps
Channel count                            : 2 channels
Channel positions                        : Front: L R
Sampling rate                            : 48.0 KHz
Bit depth                                : 16 bits
Compression mode                         : Lossy
Stream size                              : 148 MiB (10%)
Alignment                                : Split accross interleaves
Interleave, duration                     : 40 ms (1.00 video frame)
Interleave, preload duration             : 500 ms


piratbit.org



Скачать Их глаза видели Бога через торрент http://s020.radikal.ru/i707/1608/4d/7394bb2d2251.jpg Скачать фильм Их глаза видели Бога через торрент бесплантно в хорошем качестве Описание: В шестнадцать лет Дженни Старкс вышла замуж за фермера — человека состоятельного, но намного старше себя: такова была воля ... 10 10 3
Торрент: Зарегистрирован [2016-08-15 17:55] · скачан: 38 раз
Статус: √ проверено
Размер: 1.46 GB
Как cкачать? Как скачать Их глаза видели Бога через торрент | UTorrent

28-11-2019 20:33  

Отключить всю рекламу на сайте

16-08-2016 01:57 Их глаза видели Бога Скачать торрент  

Не плохой фильм)piratbit.org



    Дорогой пользователь! Огромная просьба, поблагодарите релизера, оцените раздачу и оставьте свои комментарий, если Вы скачали Их глаза видели Бога через торрент бесплатно! Внесите свою лепту в развитие PiratBit!
    Комментировать посты могут только пользователи прошедшие не сложную регистрацию
    Показать сообщения:    

    Их глаза видели Бога через торрент
    Скачать бесплатно Их глаза видели Бога
    Их глаза видели Бога скачать торрент
    Их глаза видели Бога смотреть онлайн
    Cкачать фильм Их глаза видели Бога бесплатно
    Их глаза видели Бога скачать торрент в хорошем качестве
    Их глаза видели Бога смотреть онлайн бесплатно в хорошем качестве


    Вы не можете начинать темы
    Вы не можете отвечать на сообщения
    Вы не можете редактировать свои сообщения
    Вы не можете удалять свои сообщения
    Вы не можете голосовать в опросах
    Вы не можете прикреплять файлы к сообщениям
    Вы можете скачивать файлы