1 сезон

3 сезон

iTunes

1

iTunes

MVO

iTunes

13

1 сезон

RePack

30

Deluxe

pack

Лицензия

ВАЖНО

ИГРА 18+

pack

RePack

MK11

RePack

jed

RePack

fifa19

RePack

RDR2

RePack

NEED FOR SPEED™ PAYBACK

4 сезон

9 сезон

Бесстыжие 9 сезон

Все сериалы

все сериалы на PB.wtf

RePack

FAR CRY 5

Anonymous, добрый вечер, мы катастрофически не успеваем собрать деньги на оплату серверов, помогите нам пожалуйста 5,10,15р., для нас важна любая помощь . В качестве благодарности мы отключим Вам всю рекламу на сайте (укажите свой ник в строку Ваше имя)!

×
  
Magnet ссылка

Завтрак на обочине / When Strangers Appear (Скотт Рейнольдс) [2001 г., боевик, триллер, детектив, DVDRip, Профессиональный (многоголосый)] piratbit.org

Завтрак на обочине через торрент piratbit.org

Качают: 1 [ 0 KB/s ]
Размер: 1.22 GB | Добавлен: 4 года 11 мес. назад | Торрент скачан:54 раза
Скачать  

16-08-2016 09:56 Завтрак на обочине Скачать торрент  

Завтрак на обочине / When Strangers AppearГод выпуска: 2001
Страна: Австралия, Новая Зеландия, США
Жанр: боевик, триллер, детектив
Продолжительность: 01:40:23
Перевод: Профессиональный (многоголосый)

Режиссер: Скотт Рейнольдс
Продюссер: Сью Роджерс, Гари Хэмилтон
Сценарий: Скотт Рейнольдс

В ролях: Рада Митчелл, Джош Лукас, Бэрри Уотсон, Кевин Андерсон, Джонатан Блик, Эрин Уилсон, Майкл Лоу, Стивен Рэй, Дра МакКэй, Серафин Рочери

Описание: Один раненый. Группа таинственных незнакомцев. У каждого своя история. Кому верить? Когда перепуганный, истекающий кровью Мэтт входит в затерянное кафе, которым владеет Бет, там закручивается серия загадочных событий. Трое внешне безвредных незнакомцев прибывают в кафе, но, как утверждает Мэтт, они ищут его, чтобы убить. Бет решает спасти Мэтта, но его последующее исчезновение и дальнейшее общение с гостями только еще больше запутывают ситуацию, и Бет все глубже и глубже погружается в пучину их опасных игр.

Бюджет: NZD 3 000 000
Премьера в мире: 21 июля 2001

лицам до 17 лет обязательно присутствие взрослого
http://imdb.snick.ru/movie/tt0243554



Качество: DVDRip
Формат: AVI
Видео кодек: XviD
Аудио кодек: AC3
Видео: 720x304 (2.37:1), 23.976 fps, XviD build 46 ~1 273 kbps avg, 0.26 bit/pixel
Аудио#1: Русский: 48 kHz, AC3 Dolby Digital, 2/0 (L,R) ch, ~192 kbps [Профессиональный (многоголосый, закадровый)]
Аудио#2: Английский: 48 kHz, AC3 Dolby Digital, 2/0 (L,R) ch, ~192 kbps [Оригинал]
скриншот  скриншот  скриншот  скриншот  скриншот  скриншот  скриншот  скриншот  

Код:

General
Complete name                            : E:\when_strangers_appear.avi
Format                                   : AVI
Format/Info                              : Audio Video Interleave
File size                                : 1.22 GiB
Duration                                 : 1h 40mn
Overall bit rate                         : 1 736 Kbps
Writing application                      : VirtualDubModRus 1.5.10.2 (build 2540/release)
Writing library                          : VirtualDubMod build 2540/release

Video
ID                                       : 0
Format                                   : MPEG-4 Visual
Format profile                           : Advanced Simple@L5
Format settings, BVOP                    : 1
Format settings, QPel                    : No
Format settings, GMC                     : No warppoints
Format settings, Matrix                  : Default (MPEG)
Codec ID                                 : XVID
Codec ID/Hint                            : XviD
Duration                                 : 1h 40mn
Bit rate                                 : 1 273 Kbps
Width                                    : 720 pixels
Height                                   : 304 pixels
Display aspect ratio                     : 2.35:1
Original display aspect ratio            : 2.35:1
Frame rate                               : 23.976 fps
Color space                              : YUV
Chroma subsampling                       : 4:2:0
Bit depth                                : 8 bits
Scan type                                : Progressive
Compression mode                         : Lossy
Bits/(Pixel*Frame)                       : 0.243
Stream size                              : 914 MiB (73%)
Writing library                          : XviD 1.1.2 (UTC 2006-11-01)

Audio #1
ID                                       : 1
Format                                   : AC-3
Format/Info                              : Audio Coding 3
Mode extension                           : CM (complete main)
Format settings, Endianness              : Big
Codec ID                                 : 2000
Duration                                 : 1h 40mn
Bit rate mode                            : Constant
Bit rate                                 : 192 Kbps
Channel count                            : 2 channels
Channel positions                        : Front: L R
Sampling rate                            : 48.0 KHz
Bit depth                                : 16 bits
Compression mode                         : Lossy
Stream size                              : 138 MiB (11%)
Alignment                                : Split accross interleaves

Audio #2
ID                                       : 2
Format                                   : AC-3
Format/Info                              : Audio Coding 3
Mode extension                           : CM (complete main)
Format settings, Endianness              : Big
Codec ID                                 : 2000
Duration                                 : 1h 40mn
Bit rate mode                            : Constant
Bit rate                                 : 192 Kbps
Channel count                            : 2 channels
Channel positions                        : Front: L R
Sampling rate                            : 48.0 KHz
Bit depth                                : 16 bits
Compression mode                         : Lossy
Stream size                              : 138 MiB (11%)
Alignment                                : Split accross interleaves


piratbit.org



Скачать Завтрак на обочине через торрент http://s017.radikal.ru/i435/1608/2c/13c06919eaa2.jpg Скачать фильм Завтрак на обочине через торрент бесплантно в хорошем качестве Описание: Один раненый. Группа таинственных незнакомцев. У каждого своя история. Кому верить? Когда перепуганный, истекающий кровью Мэтт ... 9.7 10 3
Торрент: Зарегистрирован [2016-08-16 09:56] · скачан: 54 раз
Статус: √ проверено
Размер: 1.22 GB
Как cкачать? Как скачать Завтрак на обочине через торрент | UTorrent

% Раздел Тема Автор DL S | L
Фильмы (WEB-DL 720p, 1080p) [ 9.37 GB ] Завтрак на обочине / When Strangers Appear [2001 WEB-DL 1080p] MVO - KORSAR kisa1980 Скачать
1 | 0
Фильмы 2001-2005 [ 1.37 GB ] Завтрак на обочине / When Strangers Appear [2001 WEB-DLRip] [MVO] killermax2013 Скачать
1 | 0

28-11-2019 20:33  

Отключить всю рекламу на сайте

16-08-2016 09:57 Завтрак на обочине Скачать торрент  

Скажу от себя,фильм достоен просмотра piratbit.org



16-08-2016 11:48 Завтрак на обочине Скачать торрент  

sanekbest1, спасибо уговарил, надо взглянуть) piratbit.org



16-08-2016 12:20 Завтрак на обочине Скачать торрент  

bober100 писал(а):

sanekbest1, спасибо уговарил, надо взглянуть)

piratbit.org



28-11-2017 14:28 Завтрак на обочине Скачать торрент  

sanekbest1, раздай пожалуйста завтрак на обочинеpiratbit.org



28-11-2017 14:47 Завтрак на обочине Скачать торрент  

drop34 писал(а):

sanekbest1, раздай пожалуйста завтрак на обочине

Уважаемый,удалил его уж давно,к сожалению....piratbit.org



    Дорогой пользователь! Огромная просьба, поблагодарите релизера, оцените раздачу и оставьте свои комментарий, если Вы скачали Завтрак на обочине через торрент бесплатно! Внесите свою лепту в развитие PiratBit!
    Комментировать посты могут только пользователи прошедшие не сложную регистрацию
    Показать сообщения:    

    Завтрак на обочине через торрент
    Скачать бесплатно Завтрак на обочине
    Завтрак на обочине скачать торрент
    Завтрак на обочине смотреть онлайн
    Cкачать фильм Завтрак на обочине бесплатно
    Завтрак на обочине скачать торрент в хорошем качестве
    Завтрак на обочине смотреть онлайн бесплатно в хорошем качестве


    Вы не можете начинать темы
    Вы не можете отвечать на сообщения
    Вы не можете редактировать свои сообщения
    Вы не можете удалять свои сообщения
    Вы не можете голосовать в опросах
    Вы не можете прикреплять файлы к сообщениям
    Вы можете скачивать файлы