1 сезон

1 сезон

iTunes

1

iTunes

Кинопоиск HD

iTunes

13

1 сезон

RePack

30

Deluxe

ВАЖНО

ИГРА 18+

pack

RePack

MK11
pack

Легкие деньги

RePack

jed

RePack

fifa19

RePack

RDR2

RePack

NEED FOR SPEED™ PAYBACK

4 сезон

9 сезон

Бесстыжие 9 сезон

Все сериалы

все сериалы на PB.wtf

RePack

FAR CRY 5
  
Magnet ссылка

Девятая сессия / Session 9 (Брэд Андерсон) [2001, триллер, детектив, ужасы, BDRip] DVO piratbit.org

Девятая сессия через торрент piratbit.org

Размер: 1.45 GB | Добавлен: 4 года 8 мес. назад | Торрент скачан:114 раз
Скачать  

17-08-2016 06:17 Девятая сессия Скачать торрент  

Девятая сессия / Session 9
Год выпуска: 2001
Страна: США
Жанр: триллер, детектив, ужасы
Продолжительность: 01:40:18
Перевод: Профессиональный (двухголосый) [Videogram]

Режиссер: Брэд Андерсон
Продюссер: Дороти Офиеро, Дэвид Коллинз, Майкл Уильямс
Сценарий: Брэд Андерсон, Стивен Геведон

Бюджет: $1 500 000
Премьера в мире: 10 августа 2001



В ролях: Дэвид Карузо, Стивен Геведон, Пол Гилфойл, Джош Лукас, Питер Муллан, Брендан Секстон III, Чарли Бродерик, Лонни Фармер, Ларри Фесенден, Джуриан Хьюз

Описание: Бригада по уничтожению асбеста получила выгодный контракт на очистку заброшенной психиатрической лечебницы. Лихо взявшись за работу, парни не ожидали, что в мрачных подвалах, заброшенных хранилищах и сырых палатах старой больницы до сих пор жива атмосфера ужаса и ненависти, переполнявшей измученные души больных, которые когда-то жили и умерли здесь...

Качество: BDRip
Формат: AVI
Видео кодек: XviD
Аудио кодек: AC3
Видео: XviD, 1677 Кбит/с, 720x304, 23.976 кадр/с
Аудио: AC3, 6 ch, 384 Кбит/с, 48 kHz
Релиз от: Koenig
General
Complete name : Session.9.2001.BDRip.avi
Format : AVI
Format/Info : Audio Video Interleave
File size : 1.45 GiB
Duration : 1h 40mn
Overall bit rate : 2 069 Kbps
Writing application : VirtualDubMod 1.5.10.2 (build 2540/release)
Writing library : VirtualDubMod build 2540/release

Video
ID : 0
Format : MPEG-4 Visual
Format profile : Advanced Simple@L5
Format settings, BVOP : 1
Format settings, QPel : No
Format settings, GMC : No warppoints
Format settings, Matrix : Default (H.263)
Codec ID : XVID
Codec ID/Hint : XviD
Duration : 1h 40mn
Bit rate : 1 677 Kbps
Width : 720 pixels
Height : 304 pixels
Display aspect ratio : 2.35:1
Frame rate : 23.976 (23976/1000) fps
Color space : YUV
Chroma subsampling : 4:2:0
Bit depth : 8 bits
Scan type : Progressive
Compression mode : Lossy
Bits/(Pixel*Frame) : 0.319
Stream size : 1.17 GiB (81%)
Writing library : XviD 1.2.0.dev47 (UTC 2006-11-01)

Audio
ID : 1
Format : AC-3
Format/Info : Audio Coding 3
Mode extension : CM (complete main)
Format settings, Endianness : Big
Codec ID : 2000
Duration : 1h 40mn
Bit rate mode : Constant
Bit rate : 384 Kbps
Channel(s) : 6 channels
Channel positions : Front: L C R, Side: L R, LFE
Sampling rate : 48.0 KHz
Frame rate : 31.250 fps (1536 spf)
Compression mode : Lossy
Stream size : 275 MiB (19%)
Alignment : Split accross interleaves
Interleave, duration : 42 ms (1.00 video frame)
Interleave, preload duration : 500 ms

piratbit.org



Скачать Девятая сессия через торрент https://pic1.kartinco.top/images/10/qqm97.jpg Скачать фильм Девятая сессия через торрент бесплантно в хорошем качестве Описание: Бригада по уничтожению асбеста получила выгодный контракт на очистку заброшенной психиатрической лечебницы. Лихо взявшись за ... 10 10 5
Торрент: Зарегистрирован [2016-08-17 06:17] · скачан: 114 раз
Статус: √ проверено
Размер: 1.45 GB
Как cкачать? Как скачать Девятая сессия через торрент | UTorrent

% Раздел Тема Автор DL S | L
Фильмы [HD 720p, 1080p] (Хороший звук DUB, MVO) [ 3.68 GB ] Девятая сессия / Session 9 [2001 BDRip 720p] DVO 2 x AVO koenig Скачать
1 | 0

28-11-2019 20:33  

Отключить всю рекламу на сайте

17-08-2016 09:53 Девятая сессия Скачать торрент  

классный фильмец-пересмотрелpiratbit.org



18-08-2016 06:50 Девятая сессия Скачать торрент  

SASHA66 писал(а):

классный фильмец-пересмотрел

То же посмотрел, понравился)piratbit.org



    Дорогой пользователь! Огромная просьба, поблагодарите релизера, оцените раздачу и оставьте свои комментарий, если Вы скачали Девятая сессия через торрент бесплатно! Внесите свою лепту в развитие PiratBit!
    Комментировать посты могут только пользователи прошедшие не сложную регистрацию
    Показать сообщения:    

    Девятая сессия через торрент
    Скачать бесплатно Девятая сессия
    Девятая сессия скачать торрент
    Девятая сессия смотреть онлайн
    Cкачать фильм Девятая сессия бесплатно
    Девятая сессия скачать торрент в хорошем качестве
    Девятая сессия смотреть онлайн бесплатно в хорошем качестве


    Вы не можете начинать темы
    Вы не можете отвечать на сообщения
    Вы не можете редактировать свои сообщения
    Вы не можете удалять свои сообщения
    Вы не можете голосовать в опросах
    Вы не можете прикреплять файлы к сообщениям
    Вы можете скачивать файлы