2 сезон

iTunes

WEBRip

1

2 сезон

iTunes

1 сезон

1 сезон

RePack

30

Ultimate

ВАЖНО

ИГРА 18+

pack

RePack

MK11
pack

Легкие деньги

RePack

jed

RePack

fifa19

RePack

RDR2

RePack

NEED FOR SPEED™ PAYBACK

4 сезон

9 сезон

Бесстыжие 9 сезон

Все сериалы

все сериалы на PB.wtf

RePack

FAR CRY 5

Anonymous, доброй ночи, мы не успеваем собрать деньги на оплату серверов за февраль, помогите нам пожалуйста в это трудное время. В качестве благодарности мы отключим Вам всю рекламу на сайте (укажите свой ник в строку Ваше имя)!

×
  
Magnet ссылка

Крутые меры / Круті стволи / Bastille Day (Джеймс Уоткинс) [2016, боевик, драма, BDRip 720p] [Ukr MVO] piratbit.org

Крутые меры через торрент piratbit.org

Размер: 3.57 GB | Добавлен: 4 года 6 мес. назад | Торрент скачан:114 раз
Скачать  

17-08-2016 18:52 Крутые меры Скачать торрент  

Крутые меры / Круті стволи / Bastille Day
Год выхода: 2016
Жанр: боевик, драма
Производство: Великобритания, Франция, США
Продолжительность: 01:31:49
Перевод: Украинский (профессиональный, многоголосный)
Субтитры: английские

Режиссер: Джеймс Уоткинс

В ролях: Идрис Эльба, Ричард Мэдден, Келли Райлли, Шарлотта Ле Бон, Анатол Юсеф, Хорхе Леон Мартинес, Карл Фаррер, Хосе Гарсия, Александр Купер, Эрик Эбони

Описание:
Ловкий карманник Майкл Мэйсон привлекает внимание полиции и спецслужб, когда крадет сумку, содержащую гораздо больше, чем просто бумажник. На его след выходит дерзкий и резкий спецагент ЦРУ Шон Брайар. Вдвоем они становятся мишенью тайной преступной организации и в течение суток должны вывести злоумышленников на чистую воду.



Качество: BDRip 720p
Формат: MKV
Видео кодек: AVC
Аудио кодек: AC3
Видео: V_MPEG4/ISO/AVC, 4469 Кбит/с, 1280 х 536, 24,000 fps
Аудио #1: 48.0 KHz, AC3, 6 ch, 448 kbps [Ukr MVO]
Аудио #2: 48.0 KHz, AC3, 6 ch, 640 kbps [ENG]

Релиз --
General
Unique ID : 186161143978902984607832386188698006427 (0x8C0D5508E61959BA899F0E150865339B)
Complete name : E:\Bastille Day (2016) BDRip 720p [UKR_ENG] [Hurtom].mkv
Format : Matroska
Format version : Version 2
File size : 3.57 GiB
Duration : 1h 31mn
Overall bit rate : 5 559 Kbps
Encoded date : UTC 2016-08-16 16:33:33
Writing application : mkvmerge v5.7.0 ('The Whirlwind') built on Jul 8 2012 20:08:51
Writing library : libebml v1.2.3 + libmatroska v1.3.0
Attachements : cover

Video
ID : 1
Format : AVC
Format/Info : Advanced Video Codec
Format profile : High@L4.1
Format settings, CABAC : Yes
Format settings, ReFrames : 5 frames
Codec ID : V_MPEG4/ISO/AVC
Duration : 1h 31mn
Bit rate : 4 469 Kbps
Width : 1 280 pixels
Height : 536 pixels
Display aspect ratio : 2.40:1
Frame rate mode : Constant
Frame rate : 24.000 fps
Color space : YUV
Chroma subsampling : 4:2:0
Bit depth : 8 bits
Scan type : Progressive
Bits/(Pixel*Frame) : 0.271
Stream size : 2.80 GiB (78%)
Writing library : x264 core 148 r2705 3f5ed56
Encoding settings : cabac=1 / ref=5 / deblock=1:-3:-3 / analyse=0x3:0x113 / me=umh / subme=8 / psy=1 / psy_rd=1.00:0.00 / mixed_ref=1 / me_range=16 / chroma_me=1 / trellis=1 / 8x8dct=1 / cqm=0 / deadzone=21,11 / fast_pskip=1 / chroma_qp_offset=-2 / threads=12 / lookahead_threads=2 / sliced_threads=0 / nr=0 / decimate=1 / interlaced=0 / bluray_compat=0 / constrained_intra=0 / bframes=3 / b_pyramid=2 / b_adapt=2 / b_bias=0 / direct=3 / weightb=1 / open_gop=0 / weightp=2 / keyint=240 / keyint_min=24 / scenecut=40 / intra_refresh=0 / rc_lookahead=50 / rc=2pass / mbtree=1 / bitrate=4469 / ratetol=1.0 / qcomp=0.60 / qpmin=0 / qpmax=69 / qpstep=4 / cplxblur=20.0 / qblur=0.5 / ip_ratio=1.40 / aq=3:0.80
Language : English
Default : Yes
Forced : No

Audio #1
ID : 2
Format : AC-3
Format/Info : Audio Coding 3
Mode extension : CM (complete main)
Format settings, Endianness : Big
Codec ID : A_AC3
Duration : 1h 31mn
Bit rate mode : Constant
Bit rate : 448 Kbps
Channel(s) : 6 channels
Channel positions : Front: L C R, Side: L R, LFE
Sampling rate : 48.0 KHz
Compression mode : Lossy
Stream size : 294 MiB (8%)
Title : AC3 5.1 @ 448 kbps
Language : Ukrainian
Default : Yes
Forced : Yes

Audio #2
ID : 3
Format : AC-3
Format/Info : Audio Coding 3
Mode extension : CM (complete main)
Format settings, Endianness : Big
Codec ID : A_AC3
Duration : 1h 31mn
Bit rate mode : Constant
Bit rate : 640 Kbps
Channel(s) : 6 channels
Channel positions : Front: L C R, Side: L R, LFE
Sampling rate : 48.0 KHz
Compression mode : Lossy
Stream size : 420 MiB (12%)
Title : AC3 5.1 @ 640 kbps
Language : English
Default : No
Forced : No

Text #1
ID : 4
Format : UTF-8
Codec ID : S_TEXT/UTF8
Codec ID/Info : UTF-8 Plain Text
Language : English
Default : No
Forced : No

Text #2
ID : 5
Format : UTF-8
Codec ID : S_TEXT/UTF8
Codec ID/Info : UTF-8 Plain Text
Title : SDH
Language : English
Default : No
Forced : No

Menu
00:00:00.000 : en:00:00:00.000
00:08:06.625 : en:00:08:06.625
00:16:39.833 : en:00:16:39.833
00:24:20.625 : en:00:24:20.625
00:33:04.625 : en:00:33:04.625
00:41:03.625 : en:00:41:03.625
00:48:37.625 : en:00:48:37.625
00:57:03.417 : en:00:57:03.417
01:07:59.000 : en:01:07:59.000
01:16:54.625 : en:01:16:54.625
01:21:43.000 : en:01:21:43.000
01:25:26.833 : en:01:25:26.833
piratbit.org



Скачать Крутые меры через торрент http://i78.fastpic.ru/big/2016/0817/9b/3dad75e15bff3fee765adf65c3268a9b.jpg Скачать фильм Крутые меры через торрент бесплантно в хорошем качестве Описание: Ловкий карманник Майкл Мэйсон привлекает внимание полиции и спецслужб, когда крадет сумку, содержащую гораздо больше, чем просто ... 7.2 10 10
Info! Золотая раздача, скачанное не засчитывается.
Торрент: Зарегистрирован [2016-08-17 18:52] · скачан: 114 раз
Статус: √ проверено
Размер: 3.57 GB
Как cкачать? Как скачать Крутые меры через торрент | UTorrent

% Раздел Тема Автор DL S | L
Фильмы с украинским озвучиванием [ 1.45 GB ] Крутые меры / Круті стволи / Bastille Day [2016 BDRip] [Ukr MVO] killermax2013 Скачать
1 | 0

28-11-2019 20:33  

Отключить всю рекламу на сайте

17-08-2016 19:15 Крутые меры Скачать торрент  

Любое провокационное сообщений в разделе о национальности и языке запрещены. В случае таковых, Ваш аккаунт будет забанен на месяц, за повторное нарушения профиль будет удален с сайта.

Свой народ нужно любить, чужой – уважать!!!
piratbit.org



17-08-2016 19:25 Крутые меры Скачать торрент  

Когда будет русский язык известно?piratbit.org



17-08-2016 20:33 Крутые меры Скачать торрент  

лично я не против украинского языка,но как бэ трекер русскоязычный и хотелось бы видеть и русскую дорожку тоже просто! фильм охота посмотреть просто на родном языке!piratbit.org



17-08-2016 20:43 Крутые меры Скачать торрент  

ROBOCOP, Вообще то нужно поиском пользоваться, все давно есть Крутые меры / Bastille Day piratbit.org



17-08-2016 23:53 Крутые меры Скачать торрент  

нА РІДНІЙ МОВІ !!!!!!!!!piratbit.org



18-08-2016 07:32 Крутые меры Скачать торрент  

killermax2013 писал(а):

ROBOCOP, Вообще то нужно поиском пользоваться, все давно есть Крутые меры / Bastille Day

Благодарю! как то лень было вбивать в поиск просто piratbit.org



19-08-2016 19:23 Крутые меры Скачать торрент  

Спасибо за украинский!!piratbit.org



    Дорогой пользователь! Огромная просьба, поблагодарите релизера, оцените раздачу и оставьте свои комментарий, если Вы скачали Крутые меры через торрент бесплатно! Внесите свою лепту в развитие PiratBit!
    Комментировать посты могут только пользователи прошедшие не сложную регистрацию
    Показать сообщения:    

    Крутые меры через торрент
    Скачать бесплатно Крутые меры
    Крутые меры скачать торрент
    Крутые меры смотреть онлайн
    Cкачать фильм Крутые меры бесплатно
    Крутые меры скачать торрент в хорошем качестве
    Крутые меры смотреть онлайн бесплатно в хорошем качестве


    Вы не можете начинать темы
    Вы не можете отвечать на сообщения
    Вы не можете редактировать свои сообщения
    Вы не можете удалять свои сообщения
    Вы не можете голосовать в опросах
    Вы не можете прикреплять файлы к сообщениям
    Вы можете скачивать файлы