2 сезон

iTunes

WEBRip

1

2 сезон

iTunes

1 сезон

1 сезон

RePack

30

Новинка

ВАЖНО

ИГРА 18+

pack

RePack

MK11
pack

Легкие деньги

RePack

jed

RePack

fifa19

RePack

RDR2

RePack

NEED FOR SPEED™ PAYBACK

4 сезон

9 сезон

Бесстыжие 9 сезон

Все сериалы

все сериалы на PB.wtf

RePack

FAR CRY 5

Anonymous, доброй ночи, мы не успеваем собрать деньги на оплату серверов за февраль, помогите нам пожалуйста в это трудное время. В качестве благодарности мы отключим Вам всю рекламу на сайте (укажите свой ник в строку Ваше имя)!

×
  
Magnet ссылка

Финансовый монстр / Грошова пастка / Money Monster (Джоди Фостер) [2016, триллер, драма, криминал, BDRip 720p] [Ukr DUB] [Лицензия / iTunes] piratbit.org

Финансовый монстр через торрент piratbit.org

Размер: 5.19 GB | Добавлен: 4 года 6 мес. назад | Торрент скачан:38 раз
Скачать  

18-08-2016 08:31 Финансовый монстр Скачать торрент  

Финансовый монстр / Грошова пастка / Money Monster
Год выхода: 2016
Жанр: триллер, драма, криминал
Выпущено: США
Продолжительность: 01:38:39
Озвучивание: Украинский (дублированный) [Лицензия / iTunes]

Субтитры: Английские

Режиссер: Джоди Фостер

В ролях: Джордж Клуни, Джулия Робертс, Джек О'Коннелл, Доминик Уэст, Катрина Балф, Джанкарло Эспозито, Кристофер Денэм, Ленни Венито, Кристофер Бауэр, Деннис Буцикарис

Описание: Сюжет фильма разворачивается вокруг Ли Гейтса, известного телеведущего, чьи финансовые советы сделали его настоящим гуру Уолл-Стрит. Один из зрителей шоу, воспользовавшись неудачным советом Ли, потерял все свое состояние и теперь хочет возмездия. Он берет знаменитость в заложники и тем самым поднимает рейтинги передачи, люди замерли перед экранами в ожидании ответа на вопрос: сколько стоит человеческая жизнь?


Файл
Качество: BDRip 720p
Формат: MKV
Видео: MPEG-4 AVC, 6886 Kбит/с, 1280x536 , 23,976 fps
Аудио: 48.0 KHz, AC3, 192 kb/s (2 ch) [DUB]
Аудио: 48.0 KHz, AC3, 448 kb/s (6 ch) [ENG]

Релиз --
General
Unique ID : 254242248446806361424810941165593982427 (0xBF4546A4153055C2A844AACCD03875DB)
Complete name : E:\Money Monster (2016) BDRip 720p [UKR_ENG] [Hurtom].mkv
Format : Matroska
Format version : Version 2
File size : 5.19 GiB
Duration : 1h 38mn
Overall bit rate : 7 529 Kbps
Encoded date : UTC 2016-08-18 04:04:43
Writing application : mkvmerge v5.7.0 ('The Whirlwind') built on Jul 8 2012 20:08:51
Writing library : libebml v1.2.3 + libmatroska v1.3.0
Attachements : cover

Video
ID : 1
Format : AVC
Format/Info : Advanced Video Codec
Format profile : High@L4.1
Format settings, CABAC : Yes
Format settings, ReFrames : 12 frames
Codec ID : V_MPEG4/ISO/AVC
Duration : 1h 38mn
Bit rate : 6 886 Kbps
Width : 1 280 pixels
Height : 536 pixels
Display aspect ratio : 2.40:1
Frame rate mode : Constant
Frame rate : 23.976 fps
Color space : YUV
Chroma subsampling : 4:2:0
Bit depth : 8 bits
Scan type : Progressive
Bits/(Pixel*Frame) : 0.419
Stream size : 4.64 GiB (90%)
Writing library : x264 core 148 r2705 3f5ed56
Encoding settings : cabac=1 / ref=12 / deblock=1:-3:-3 / analyse=0x3:0x133 / me=umh / subme=11 / psy=1 / psy_rd=1.00:0.00 / mixed_ref=1 / me_range=32 / chroma_me=1 / trellis=2 / 8x8dct=1 / cqm=0 / deadzone=21,11 / fast_pskip=0 / chroma_qp_offset=-2 / threads=17 / lookahead_threads=2 / sliced_threads=0 / slices=4 / nr=0 / decimate=0 / interlaced=0 / bluray_compat=0 / constrained_intra=0 / bframes=8 / b_pyramid=2 / b_adapt=2 / b_bias=0 / direct=3 / weightb=1 / open_gop=0 / weightp=2 / keyint=250 / keyint_min=23 / scenecut=40 / intra_refresh=0 / rc_lookahead=40 / rc=2pass / mbtree=0 / bitrate=6886 / ratetol=1.0 / qcomp=0.65 / qpmin=0 / qpmax=51 / qpstep=4 / cplxblur=20.0 / qblur=0.5 / vbv_maxrate=62500 / vbv_bufsize=78125 / nal_hrd=none / filler=0 / ip_ratio=1.35 / pb_ratio=1.25 / aq=3:0.75 / zones=0,699,b=2
Language : English
Default : Yes
Forced : No

Audio #1
ID : 2
Format : AC-3
Format/Info : Audio Coding 3
Format profile : Dolby Digital
Mode extension : CM (complete main)
Format settings, Endianness : Big
Codec ID : A_AC3
Duration : 1h 38mn
Bit rate mode : Constant
Bit rate : 192 Kbps
Channel(s) : 2 channels
Channel positions : Front: L R
Sampling rate : 48.0 KHz
Compression mode : Lossy
Stream size : 135 MiB (3%)
Title : AC3 2.0 @ 192 kbps
Language : Ukrainian
Default : Yes
Forced : Yes

Audio #2
ID : 3
Format : AC-3
Format/Info : Audio Coding 3
Mode extension : CM (complete main)
Format settings, Endianness : Big
Codec ID : A_AC3
Duration : 1h 38mn
Bit rate mode : Constant
Bit rate : 448 Kbps
Channel(s) : 6 channels
Channel positions : Front: L C R, Side: L R, LFE
Sampling rate : 48.0 KHz
Compression mode : Lossy
Stream size : 316 MiB (6%)
Title : AC3 5.1 @ 448 kbps
Language : English
Default : No
Forced : No

Text #1
ID : 4
Format : UTF-8
Codec ID : S_TEXT/UTF8
Codec ID/Info : UTF-8 Plain Text
Title : Full
Language : English
Default : No
Forced : No

Text #2
ID : 5
Format : UTF-8
Codec ID : S_TEXT/UTF8
Codec ID/Info : UTF-8 Plain Text
Title : SDH
Language : English
Default : No
Forced : No

Menu
00:00:00.000 : en:1
00:07:14.225 : en:2
00:12:38.800 : en:3
00:20:08.457 : en:4
00:24:32.179 : en:5
00:31:37.854 : en:6
00:39:52.140 : en:7
00:45:29.101 : en:8
00:51:37.511 : en:9
00:55:39.628 : en:10
00:58:43.019 : en:11
01:06:42.207 : en:12
01:10:27.682 : en:13
01:16:06.228 : en:14
01:19:55.165 : en:15
01:29:35.036 : en:16
piratbit.org



Скачать Финансовый монстр через торрент http://i80.fastpic.ru/big/2016/0818/bc/943543619f460fc9faef2945897aa2bc.jpg Скачать фильм Финансовый монстр через торрент бесплантно в хорошем качестве Описание: Сюжет фильма разворачивается вокруг Ли Гейтса, известного телеведущего, чьи финансовые советы сделали его настоящим гуру ... 8.2 10 5
Торрент: Зарегистрирован [2016-08-18 08:31] · скачан: 38 раз
Статус: √ проверено
Размер: 5.19 GB
Как cкачать? Как скачать Финансовый монстр через торрент | UTorrent

28-11-2019 20:33  

Отключить всю рекламу на сайте

    Дорогой пользователь! Огромная просьба, поблагодарите релизера, оцените раздачу и оставьте свои комментарий, если Вы скачали Финансовый монстр через торрент бесплатно! Внесите свою лепту в развитие PiratBit!
    Комментировать посты могут только пользователи прошедшие не сложную регистрацию
    Показать сообщения:    

    Финансовый монстр через торрент
    Скачать бесплатно Финансовый монстр
    Финансовый монстр скачать торрент
    Финансовый монстр смотреть онлайн
    Cкачать фильм Финансовый монстр бесплатно
    Финансовый монстр скачать торрент в хорошем качестве
    Финансовый монстр смотреть онлайн бесплатно в хорошем качестве


    Вы не можете начинать темы
    Вы не можете отвечать на сообщения
    Вы не можете редактировать свои сообщения
    Вы не можете удалять свои сообщения
    Вы не можете голосовать в опросах
    Вы не можете прикреплять файлы к сообщениям
    Вы можете скачивать файлы