1 сезон

3 сезон

iTunes

1

iTunes

DUB Netflix

iTunes

13

1 сезон

RePack

30

Deluxe

pack

Легкие деньги

ВАЖНО

ИГРА 18+

pack

RePack

MK11

RePack

jed

RePack

fifa19

RePack

RDR2

RePack

NEED FOR SPEED™ PAYBACK

4 сезон

9 сезон

Бесстыжие 9 сезон

Все сериалы

все сериалы на PB.wtf

RePack

FAR CRY 5

Anonymous, доброй ночи, мы не успеваем до 1 числа собрать деньги на оплату серверов, помогите нам пожалуйста в это трудное время. В качестве благодарности мы отключим Вам всю рекламу на сайте (укажите свой ник в строку Ваше имя)!

×
  
Magnet ссылка

Эдди «Орел» / Eddie the Eagle (Декстер Флетчер / Dexter Fletcher) [2016, Великобритания, США, Германия, драма, комедия, биография, BDRip-AVC от sokol_ok] DUB [Лицензия] piratbit.org

Эдди «Орел» через торрент piratbit.org

Раздают: 1 [ 0 KB/s ]
Размер: 2.18 GB | Добавлен: 4 года 10 мес. назад | Торрент скачан:362 раза
Скачать  

20-08-2016 10:14 Эдди «Орел» Скачать торрент  

Эдди «Орел»
Eddie the Eagle

«The hysterical true life story of Britain's most famous ski jumper Eddie 'The Eagle' Edwards and his journey to Olympic fame»


Страна: Великобритания, США, Германия
Жанр: драма, комедия, биография, спорт

Год выпуска: 2016
Продолжительность: 01:45:43

Перевод: Профессиональный (полное дублирование) [Blu-ray CEE]
Cубтитры: русские (форсированные, полные), украинские (форсированные, полные), английские (полные iTunes, полные Blu-ray, SDH)
Оригинальная аудиодорожка: английский

Режиссер: Декстер Флетчер / Dexter Fletcher

В ролях: Тэрон Эджертон, Хью Джекман, Кристофер Уокен, Джо Хартли, Том Костелло, Кит Аллен, Дикон Толсон, Джек Костелло, Марк Бентон, Тим МакИннерни, Эдвин Эндре, Мэдс Сьёгард Петтерсен

Описание:
Фильм повествует о трамплинисте Эдди, по прозвищу «Орел». Он прославился благодаря своим неудачам, ибо на всех соревнованиях он занимал последние места.



Релиз:

Автор рипа: stalkerok

Сэмпл

Качество видео: BDRip-AVC [Eddie the Eagle (2016) Blu-ray CEE 1080p AVC DTS 5.1 HDCLUB]
Формат видео: MKV
Видео кодек: AVC
Аудио кодек: AC3
Видео: 2058 Кбит/сек, 1108*464 (2,40:1), в 23,976 (24000/1001) кадра/сек, AVC
Аудио #1: русский, 448 Кбит/сек, 48 КГц, 16 бит, 5.1, AC3
Аудио #2: английский, 448 Кбит/сек, 48 КГц, 16 бит, 5.1, AC3
Навигация по главам: есть

Общее
Уникальный идентификатор : 199893809158269742253509976000794464458 (0x966225B3D9C7942981799367D1E810CA)
Полное имя : M:\3Rips\Eddie the Eagle\Eddie.the.Eagle.2016.BDRip-AVC.Dub.2.18Gb.stalkerok.new-team.mkv
Формат : Matroska
Версия формата : Version 4 / Version 2
Размер файла : 2,18 Гбайт
Продолжительность : 1 ч. 45 м.
Общий поток : 2956 Кбит/сек
Название фильма : Eddie the Eagle (2016) (Rip by stalkerok)
Дата кодирования : UTC 2016-08-20 10:03:03
Программа кодирования : mkvmerge v8.6.1 ('Flying') 64bit
Библиотека кодирования : libebml v1.3.3 + libmatroska v1.4.4

Видео
Идентификатор : 1
Формат : AVC
Формат/Информация : Advanced Video Codec
Профиль формата : High@L4.1
Параметр CABAC формата : Да
Параметр ReFrames формата : 14 кадров
Идентификатор кодека : V_MPEG4/ISO/AVC
Продолжительность : 1 ч. 45 м.
Битрейт : 2058 Кбит/сек
Ширина : 1108 пикселей
Высота : 464 пикселя
Соотношение сторон : 2,40:1
Режим частоты кадров : Постоянный
Частота кадров : 23,976 (24000/1001) кадра/сек
Цветовое пространство : YUV
Субдискретизация насыщенности : 4:2:0
Битовая глубина : 8 бит
Тип развёртки : Прогрессивная
Бит/(Пиксели*Кадры) : 0.167
Размер потока : 1,52 Гбайт (70%)
Заголовок : Eddie the Eagle (2016) (Rip by stalkerok)
Библиотека кодирования : x264 core 148 r2705+54 9f484c1 t_mod_Custom [8-bit@all X86_64]
Настройки программы : cabac=1 / ref=14 / deblock=1:-3:-2 / analyse=0x3:0x133 / me=umh / subme=10 / psy=1 / fade_compensate=0.00 / psy_rd=1.00:0.00 / mixed_ref=1 / me_range=32 / chroma_me=1 / trellis=2 / 8x8dct=1 / cqm=0 / deadzone=21,11 / fast_pskip=0 / chroma_qp_offset=-2 / threads=12 / lookahead_threads=3 / sliced_threads=0 / nr=0 / decimate=0 / interlaced=0 / bluray_compat=0 / constrained_intra=0 / fgo=0 / bframes=14 / b_pyramid=2 / b_adapt=2 / b_bias=0 / direct=3 / weightb=1 / open_gop=0 / weightp=2 / keyint=240 / keyint_min=23 / scenecut=40 / intra_refresh=0 / rc_lookahead=60 / rc=2pass / mbtree=0 / bitrate=2058 / ratetol=1.0 / qcomp=0.65 / qpmin=0:0:0 / qpmax=69:69:69 / qpstep=4 / cplxblur=20.0 / qblur=0.5 / vbv_maxrate=50000 / vbv_bufsize=62500 / nal_hrd=none / filler=0 / ip_ratio=1.40 / pb_ratio=1.30 / aq=3:0.80 / aq-sensitivity=10.00 / aq-factor=1.00:1.00:1.00 / aq2=0 / aq3=0
Default : Да
Forced : Нет

Аудио #1
Идентификатор : 2
Формат : AC-3
Формат/Информация : Audio Coding 3
Расширение режима : CM (complete main)
Параметр Endianness формата : Big
Идентификатор кодека : A_AC3
Продолжительность : 1 ч. 45 м.
Вид битрейта : Постоянный
Битрейт : 448 Кбит/сек
Каналы : 6 каналов
Расположение каналов : Front: L C R, Side: L R, LFE
Частота : 48,0 КГц
Частота кадров : 31,250 кадров/сек (1536 spf)
Метод сжатия : С потерями
Размер потока : 339 Мбайт (15%)
Язык : Russian
Default : Да
Forced : Нет

Аудио #2
Идентификатор : 3
Формат : AC-3
Формат/Информация : Audio Coding 3
Расширение режима : CM (complete main)
Параметр Endianness формата : Big
Идентификатор кодека : A_AC3
Продолжительность : 1 ч. 45 м.
Вид битрейта : Постоянный
Битрейт : 448 Кбит/сек
Каналы : 6 каналов
Расположение каналов : Front: L C R, Side: L R, LFE
Частота : 48,0 КГц
Частота кадров : 31,250 кадров/сек (1536 spf)
Метод сжатия : С потерями
Размер потока : 339 Мбайт (15%)
Язык : English
Default : Нет
Forced : Нет

Текст #1
Идентификатор : 4
Формат : UTF-8
Идентификатор кодека : S_TEXT/UTF8
Идентификатор кодека/Информация : UTF-8 Plain Text
Продолжительность : 1 ч. 44 м.
Битрейт : 2 бит/сек
Count of elements : 25
Размер потока : 1,55 Кбайт (0%)
Заголовок : Forced, iTunes
Язык : Russian
Default : Да
Forced : Нет

Текст #2
Идентификатор : 5
Формат : UTF-8
Идентификатор кодека : S_TEXT/UTF8
Идентификатор кодека/Информация : UTF-8 Plain Text
Продолжительность : 1 ч. 44 м.
Битрейт : 84 бит/сек
Count of elements : 1144
Размер потока : 65,1 Кбайт (0%)
Заголовок : iTunes
Язык : Russian
Default : Нет
Forced : Нет

Текст #3
Идентификатор : 6
Формат : UTF-8
Идентификатор кодека : S_TEXT/UTF8
Идентификатор кодека/Информация : UTF-8 Plain Text
Продолжительность : 7 м. 7 с.
Битрейт : 4 бит/сек
Count of elements : 4
Размер потока : 259 байт (0%)
Заголовок : Forced, iTunes
Язык : Ukrainian
Default : Нет
Forced : Нет

Текст #4
Идентификатор : 7
Формат : UTF-8
Идентификатор кодека : S_TEXT/UTF8
Идентификатор кодека/Информация : UTF-8 Plain Text
Продолжительность : 1 ч. 44 м.
Битрейт : 88 бит/сек
Count of elements : 1142
Размер потока : 67,7 Кбайт (0%)
Заголовок : iTunes
Язык : Ukrainian
Default : Нет
Forced : Нет

Текст #5
Идентификатор : 8
Формат : UTF-8
Идентификатор кодека : S_TEXT/UTF8
Идентификатор кодека/Информация : UTF-8 Plain Text
Продолжительность : 29 м.
Битрейт : 0 бит/сек
Count of elements : 4
Размер потока : 104 байт (0%)
Заголовок : Forced, iTunes
Язык : English
Default : Нет
Forced : Нет

Текст #6
Идентификатор : 9
Формат : UTF-8
Идентификатор кодека : S_TEXT/UTF8
Идентификатор кодека/Информация : UTF-8 Plain Text
Продолжительность : 1 ч. 39 м.
Битрейт : 55 бит/сек
Count of elements : 1105
Размер потока : 40,5 Кбайт (0%)
Заголовок : iTunes
Язык : English
Default : Нет
Forced : Нет

Текст #7
Идентификатор : 10
Формат : UTF-8
Идентификатор кодека : S_TEXT/UTF8
Идентификатор кодека/Информация : UTF-8 Plain Text
Продолжительность : 1 ч. 44 м.
Битрейт : 60 бит/сек
Count of elements : 1501
Размер потока : 46,1 Кбайт (0%)
Заголовок : Blu-ray
Язык : English
Default : Нет
Forced : Нет

Текст #8
Идентификатор : 11
Формат : UTF-8
Идентификатор кодека : S_TEXT/UTF8
Идентификатор кодека/Информация : UTF-8 Plain Text
Продолжительность : 1 ч. 44 м.
Битрейт : 64 бит/сек
Count of elements : 1639
Размер потока : 49,3 Кбайт (0%)
Заголовок : Blu-ray SDH
Язык : English
Default : Нет
Forced : Нет

Меню
00:00:00.000 : en:Chapter 1
00:03:33.171 : en:Chapter 2
00:08:15.161 : en:Chapter 3
00:12:06.684 : en:Chapter 4
00:17:54.573 : en:Chapter 5
00:21:31.081 : en:Chapter 6
00:26:19.578 : en:Chapter 7
00:31:41.566 : en:Chapter 8
00:37:13.272 : en:Chapter 9
00:41:46.962 : en:Chapter 10
00:47:12.329 : en:Chapter 11
00:50:19.349 : en:Chapter 12
00:53:39.591 : en:Chapter 13
00:56:57.580 : en:Chapter 14
01:02:22.905 : en:Chapter 15
01:08:16.884 : en:Chapter 16
01:11:42.298 : en:Chapter 17
01:17:05.787 : en:Chapter 18
01:20:00.587 : en:Chapter 19
01:23:23.456 : en:Chapter 20
01:27:44.592 : en:Chapter 21
01:31:40.119 : en:Chapter 22
01:36:53.057 : en:Chapter 23
01:40:42.077 : en:Chapter 24
piratbit.org



Скачать Эдди «Орел» через торрент http://i72.fastpic.ru/big/2015/0531/46/68ef8a2783b58e5344cc30bbd3f1b046.png Скачать фильм Эдди «Орел» через торрент бесплантно в хорошем качестве Описание:Фильм повествует о трамплинисте Эдди, по прозвищу «Орел». Он прославился благодаря своим неудачам, ибо на всех соревнованиях он ... 8.9 10 7
Info! Золотая раздача, скачанное не засчитывается.
Торрент: Зарегистрирован [2016-08-20 10:14] · скачан: 362 раз
Статус: √ проверено
Размер: 2.18 GB
Как cкачать? Как скачать Эдди «Орел» через торрент | UTorrent

% Раздел Тема Автор DL S | L
Фильмы 2016 [DVDrip, WEB-DLRip, HDrip] (DUB, MVO) [ 745 MB ] Эдди «Орел» / Eddie the Eagle [2016 биография HDRip] DUB [ BD CEE] bober100 Скачать
1 | 0
Фильмы (HD 720p, 1080p) (48-60 fps) [ 3.42 GB ] Эдди «Орел» / Eddie the Eagle [2016 биография BDRip 720p 60 fps от еnvy / NNNB] DUB еnvy Скачать
4 | 0
Фильмы 2016 [DVDrip, WEB-DLRip, HDrip] (DUB, MVO) [ 746 MB ] Эдди «Орел» / Eddie the Eagle [2016 Германия биография BDRip-AVC от sokol_ok] DUB sokol_ok Скачать
3 | 0
Фильмы 2016 [DVDrip, WEB-DLRip, HDrip] (DUB, MVO) [ 1.46 GB ] Эдди «Орел» / Eddie the Eagle [2016 биография BDRip] DUB Twi7ter Скачать
1 | 0
Фильмы [HD 720p, 1080p] (Хороший звук DUB, MVO) [ 7.74 GB ] Эдди «Орел» / Eddie the Eagle [2016 биография BDRip 1080p от еnvy / NNNB] DUB еnvy Скачать
15 | 0
Фильмы 2016 [DVDrip, WEB-DLRip, HDrip] (DUB, MVO) [ 1.46 GB ] Эдди «Орел» / Eddie the Eagle [2016 Германия биография BDRip-AVC от sokol_ok] DUB sokol_ok Скачать
2 | 0
Фильмы [HD 720p, 1080p] (Хороший звук DUB, MVO) [ 10.89 GB ] Эдди «Орел» / Eddie the Eagle [2016 биография BDRip 1080p / ] Ворон Скачать
1 | 0

28-11-2019 20:33  

Отключить всю рекламу на сайте

20-08-2016 13:35 Эдди «Орел» Скачать торрент  

Хороший фильм стоит по смотреть)piratbit.org



03-09-2016 17:36 Эдди «Орел» Скачать торрент  

Фильм - не огонь!piratbit.org



    Дорогой пользователь! Огромная просьба, поблагодарите релизера, оцените раздачу и оставьте свои комментарий, если Вы скачали Эдди «Орел» через торрент бесплатно! Внесите свою лепту в развитие PiratBit!
    Комментировать посты могут только пользователи прошедшие не сложную регистрацию
    Показать сообщения:    

    Эдди «Орел» через торрент
    Скачать бесплатно Эдди «Орел»
    Эдди «Орел» скачать торрент
    Эдди «Орел» смотреть онлайн
    Cкачать фильм Эдди «Орел» бесплатно
    Эдди «Орел» скачать торрент в хорошем качестве
    Эдди «Орел» смотреть онлайн бесплатно в хорошем качестве


    Вы не можете начинать темы
    Вы не можете отвечать на сообщения
    Вы не можете редактировать свои сообщения
    Вы не можете удалять свои сообщения
    Вы не можете голосовать в опросах
    Вы не можете прикреплять файлы к сообщениям
    Вы можете скачивать файлы