1 сезон

3 сезон

iTunes

1

iTunes

DUB Netflix

iTunes

13

1 сезон

RePack

30

Deluxe

pack

Легкие деньги

ВАЖНО

ИГРА 18+

pack

RePack

MK11

RePack

jed

RePack

fifa19

RePack

RDR2

RePack

NEED FOR SPEED™ PAYBACK

4 сезон

9 сезон

Бесстыжие 9 сезон

Все сериалы

все сериалы на PB.wtf

RePack

FAR CRY 5

Anonymous, добрый вечер, мы не успеваем до 1 числа собрать деньги на оплату серверов, помогите нам пожалуйста в это трудное время. В качестве благодарности мы отключим Вам всю рекламу на сайте (укажите свой ник в строку Ваше имя)!

×
  
Magnet ссылка

Проклятие Спящей красавицы / The Curse of Sleeping Beauty (Тео Пирри) [2016г., фэнтези, триллер, детектив, WEB-DLRip] Дубляж - [Официальный звук] piratbit.org

Проклятие Спящей красавицы через торрент piratbit.org

Размер: 1.35 GB | Добавлен: 4 года 10 мес. назад | Торрент скачан:920 раз
Скачать  

20-08-2016 12:06 Проклятие Спящей красавицы Скачать торрент  

Проклятие Спящей красавицы / The Curse of Sleeping Beauty
Год выпуска: 2016
Страна: США
Жанр: фэнтези, триллер, детектив
Продолжительность: 01:22:33

  • Перевод: Дубляж - [Официальный звук]

Режиссер: Тео Пирри
В ролях:
Итан Пек, Индиа Айсли, Натали Холл, Брюс Дэвисон, Джеймс Лим, Скотт Алан Смит, Зак Уорд, Мим Дрю, Даллас Харт, Жаклин Гёнер
Описание:
Томас Кайзер наследует родовое поместье, принадлежащее его семье многие поколения. Но он и не подозревает, что вместе с домом унаследовал и древнее проклятие, что лежит на нём со времён крестовых походов. Томас вынужден примерить на себя роль «хранителя» - того, кто не допустит, чтобы силы зла высвободились из поместья. Разгадать тайну дома ему помогут местный риелтор и священник, а также разбудить прекрасную Брайер Роуз, запертую в ужасном месте, которое Томас видел в своих снах.


  • Тип релиза: WEB-DLRip
  • Формат: AVI
  • Видео кодек: XviD | Аудио кодек: AC3
  • Видео: 720x400 (16:9),1946 Kbps, 25 fps, 0,270 bpp
  • Аудио: AC3 / 2.0 / 48 kHz / 384 kbps /
Cэмпл
General
Complete name : C:\торрент\Proklyatie.Spyashej.krasavicy.2O16.D.WEBDRip.avi
Format : AVI
Format/Info : Audio Video Interleave
File size : 1.35 GiB
Duration : 1h 22mn
Overall bit rate : 2 340 Kbps
Writing application : VirtualDubMod 1.5.10.3 | www.virtualdub-fr.org || (build 2550/release)
Writing library : VirtualDubMod build 2550/release

Video
ID : 0
Format : MPEG-4 Visual
Format profile : Advanced Simple@L5
Format settings, BVOP : 2
Format settings, QPel : No
Format settings, GMC : No warppoints
Format settings, Matrix : Default (MPEG)
Codec ID : XVID
Codec ID/Hint : XviD
Duration : 1h 22mn
Bit rate : 1 947 Kbps
Width : 720 pixels
Height : 400 pixels
Display aspect ratio : 16:9
Frame rate : 25.000 fps
Color space : YUV
Chroma subsampling : 4:2:0
Bit depth : 8 bits
Scan type : Progressive
Compression mode : Lossy
Bits/(Pixel*Frame) : 0.270
Stream size : 1.12 GiB (83%)
Writing library : XviD 1.2.1 (UTC 2008-12-04)

Audio
ID : 1
Format : AC-3
Format/Info : Audio Coding 3
Mode extension : CM (complete main)
Format settings, Endianness : Big
Codec ID : 2000
Duration : 1h 22mn
Bit rate mode : Constant
Bit rate : 384 Kbps
Channel(s) : 2 channels
Channel positions : Front: L R
Sampling rate : 48.0 KHz
Frame rate : 31.250 fps (1536 spf)
Compression mode : Lossy
Stream size : 227 MiB (16%)
Alignment : Split accross interleaves
Interleave, duration : 40 ms (1.00 video frame)
Interleave, preload duratio : 500 ms
piratbit.org



Скачать Проклятие Спящей красавицы через торрент https://pic1.kartinco.top/images/10/4room.jpg Скачать фильм Проклятие Спящей красавицы через торрент бесплантно в хорошем качестве Описание: Томас Кайзер наследует родовое поместье, принадлежащее его семье многие поколения. Но он и не подозревает, что вместе с домом ... 9 10 33
Info! Золотая раздача, скачанное не засчитывается.
Торрент: Зарегистрирован [2016-08-20 12:06] · скачан: 920 раз
Статус: T временная
Размер: 1.35 GB
Как cкачать? Как скачать Проклятие Спящей красавицы через торрент | UTorrent

% Раздел Тема Автор DL S | L
T Фильмы (WEB-DL 720p, 1080p) [ 3.06 GB ] Проклятие Спящей красавицы / The Curse of Sleeping Beauty [2016 WEB-DL 1080p] - [Официальный звук] -Lexx- Скачать
1 | 0

28-11-2019 20:33  

Отключить всю рекламу на сайте

20-08-2016 13:33 Проклятие Спящей красавицы Скачать торрент  

Как фильм? Страшно?piratbit.org



20-08-2016 13:52 Проклятие Спящей красавицы Скачать торрент  

И молчат все)))piratbit.org



20-08-2016 14:56 Проклятие Спящей красавицы Скачать торрент  

Глянуть можно но конец х**вый!piratbit.org



20-08-2016 14:57 Проклятие Спящей красавицы Скачать торрент  

По трейлеру вроде интересное переосмысление в ужасы!!!piratbit.org



20-08-2016 17:30 Проклятие Спящей красавицы Скачать торрент  

не шедевр жанра-но вечерок пойдет скоротать под пивоpiratbit.org



31-08-2016 14:55 Проклятие Спящей красавицы Скачать торрент  

глянемpiratbit.org



31-08-2016 19:57 Проклятие Спящей красавицы Скачать торрент  

Не ужас это точно). Смотрибельно. Концовка забавная)piratbit.org



    Дорогой пользователь! Огромная просьба, поблагодарите релизера, оцените раздачу и оставьте свои комментарий, если Вы скачали Проклятие Спящей красавицы через торрент бесплатно! Внесите свою лепту в развитие PiratBit!
    Комментировать посты могут только пользователи прошедшие не сложную регистрацию
    Показать сообщения:    

    Проклятие Спящей красавицы через торрент
    Скачать бесплатно Проклятие Спящей красавицы
    Проклятие Спящей красавицы скачать торрент
    Проклятие Спящей красавицы смотреть онлайн
    Cкачать фильм Проклятие Спящей красавицы бесплатно
    Проклятие Спящей красавицы скачать торрент в хорошем качестве
    Проклятие Спящей красавицы смотреть онлайн бесплатно в хорошем качестве


    Вы не можете начинать темы
    Вы не можете отвечать на сообщения
    Вы не можете редактировать свои сообщения
    Вы не можете удалять свои сообщения
    Вы не можете голосовать в опросах
    Вы не можете прикреплять файлы к сообщениям
    Вы можете скачивать файлы