1 сезон

3 сезон

iTunes

1

iTunes

DUB Netflix

iTunes

13

1 сезон

RePack

30

Deluxe

pack

Легкие деньги

ВАЖНО

ИГРА 18+

pack

RePack

MK11

RePack

jed

RePack

fifa19

RePack

RDR2

RePack

NEED FOR SPEED™ PAYBACK

4 сезон

9 сезон

Бесстыжие 9 сезон

Все сериалы

все сериалы на PB.wtf

RePack

FAR CRY 5

Anonymous, добрый вечер, мы не успеваем до 1 числа собрать деньги на оплату серверов, помогите нам пожалуйста в это трудное время. В качестве благодарности мы отключим Вам всю рекламу на сайте (укажите свой ник в строку Ваше имя)!

×
  
Magnet ссылка

Соседи. На тропе войны 2 / Neighbors 2: Sorority Rising [2016, комедия, HDRip-AVC] Dub [iTunes] piratbit.org

Соседи. На тропе войны 2 через торрент piratbit.org

Размер: 1.42 GB | Добавлен: 4 года 10 мес. назад | Торрент скачан:291 раз
Скачать  

23-08-2016 15:06 Соседи. На тропе войны 2 Скачать торрент  

Соседи. На тропе войны 2 / Neighbors 2: Sorority Rising«New neighbors»

Год выпуска » 2016
Страна » США
Жанр » Комедия
Продолжительность » 01:32:23
Перевод » Профессиональный (полное дублирование) [iTunes]
Субтитры » Английские
В ролях
» Сет Роген, Зак Эфрон, Роуз Бирн, Хлоя Грейс Морец, Айк Баринхолц, Кирси Клемонс, Дэйв Франко, Джеррод Кармайкл, Кристофер Минц-Плассе, Бини Фелдштейн

Режиссёр
» Николас Столлер

» На этот раз в дом по соседству с Маком и Келли въезжает университетский женский клуб. Чтобы разобраться с новыми соседями, которые не дают им покоя, Мак и Келли решают обратиться за помощью к их бывшему врагу — Тедди Сандерсу.

• Качество » HDRip-AVC
• Формат » mkv
• Видео кодек » AVC
• Аудио кодек » AC3,DTS
• Видео »MPEG-4 AVC, 1811 Кбит/с, 720x302,23.976 fps
• Аудио » Русский (AC-3 / 6 ch / 384 kbps / 48,0 КГц / 16 bit )



Бюджет: $35 000 000
Сборы в США: $55 340 730
Сборы в мире: + $52 551 344 = $107 892 074
Сборы в России: $674 754
Дата мировой премьеры: 26 апреля 2016
Дата российской премьеры: 23 июня 2016, «UPI»
Общее
Уникальный идентификатор : 232069652730561989018565976181651306673 (0xAE96FD453CDAAD79B0FC519DE0D078B1)
Полное имя : D:TempNeighbors.2.Sorority.Rising.2016.HDRip-AVC by Vovan366(ExKinoRay).mkv
Формат : Matroska
Версия формата : Version 4 / Version 2
Размер файла : 1,42 Гбайт
Продолжительность : 1 ч. 32 м.
Общий поток : 2196 Кбит/сек
Дата кодирования : UTC 2016-08-22 21:04:33
Программа кодирования : mkvmerge v9.4.0 ('Knurl') 64bit
Библиотека кодирования : libebml v1.3.4 + libmatroska v1.4.5
DURATION : 01:32:22.784000000
NUMBER_OF_FRAMES : 173212
NUMBER_OF_BYTES : 266053632
_STATISTICS_WRITING_APP : mkvmerge v9.4.0 ('Knurl') 64bit
_STATISTICS_WRITING_DATE_UTC : 2016-08-22 21:04:33
_STATISTICS_TAGS : BPS DURATION NUMBER_OF_FRAMES NUMBER_OF_BYTES

Видео
Идентификатор : 1
Формат : AVC
Формат/Информация : Advanced Video Codec
Профиль формата : High@L4.1
Параметр CABAC формата : Да
Параметр ReFrames формата : 10 кадров
Идентификатор кодека : V_MPEG4/ISO/AVC
Продолжительность : 1 ч. 32 м.
Битрейт : 1811 Кбит/сек
Ширина : 720 пикселей
Высота : 302 пикселя
Соотношение сторон : 2,40:1
Режим частоты кадров : Постоянный
Частота кадров : 23,976 кадра/сек
Цветовое пространство : YUV
Субдискретизация насыщенности : 4:2:0
Битовая глубина : 8 бит
Тип развёртки : Прогрессивная
Бит/(Пиксели*Кадры) : 0.347
Размер потока : 1,14 Гбайт (81%)
Библиотека кодирования : x264 core 146 r2538 121396c
Настройки программы : cabac=1 / ref=10 / deblock=1:-3:-3 / analyse=0x3:0x113 / me=umh / subme=11 / psy=1 / psy_rd=1.00:0.05 / mixed_ref=1 / me_range=48 / chroma_me=1 / trellis=2 / 8x8dct=1 / cqm=0 / deadzone=21,11 / fast_pskip=0 / chroma_qp_offset=-3 / threads=6 / lookahead_threads=1 / sliced_threads=0 / nr=0 / decimate=0 / interlaced=0 / bluray_compat=0 / constrained_intra=0 / bframes=10 / b_pyramid=2 / b_adapt=2 / b_bias=0 / direct=3 / weightb=1 / open_gop=0 / weightp=2 / keyint=240 / keyint_min=23 / scenecut=40 / intra_refresh=0 / rc_lookahead=40 / rc=2pass / mbtree=0 / bitrate=1811 / ratetol=1.0 / qcomp=0.60 / qpmin=0 / qpmax=69 / qpstep=4 / cplxblur=20.0 / qblur=0.5 / vbv_maxrate=14000 / vbv_bufsize=14000 / nal_hrd=none / filler=0 / ip_ratio=1.40 / pb_ratio=1.30 / aq=1:1.00
Default : Да
Forced : Нет
Основные цвета : BT.709
Характеристики трансфера : BT.709
Коэффициенты матрицы : BT.709

Аудио
Идентификатор : 2
Формат : AC-3
Формат/Информация : Audio Coding 3
Расширение режима : CM (complete main)
Параметр Endianness формата : Big
Идентификатор кодека : A_AC3
Продолжительность : 1 ч. 32 м.
Вид битрейта : Постоянный
Битрейт : 384 Кбит/сек
Каналы : 6 каналов
Расположение каналов : Front: L C R, Side: L R, LFE
Частота : 48,0 КГц
Битовая глубина : 16 бит
Метод сжатия : С потерями
Размер потока : 254 Мбайт (17%)
Default : Да
Forced : Нет

Текст #1
Идентификатор : 3
Формат : UTF-8
Идентификатор кодека : S_TEXT/UTF8
Идентификатор кодека/Информация : UTF-8 Plain Text
Язык : English
Default : Нет
Forced : Нет
DURATION : 01:25:19.614000000
NUMBER_OF_FRAMES : 2127
NUMBER_OF_BYTES : 64774
_STATISTICS_WRITING_APP : mkvmerge v9.4.0 ('Knurl') 64bit
_STATISTICS_WRITING_DATE_UTC : 2016-08-22 21:04:33
_STATISTICS_TAGS : BPS DURATION NUMBER_OF_FRAMES NUMBER_OF_BYTES

Текст #2
Идентификатор : 4
Формат : UTF-8
Идентификатор кодека : S_TEXT/UTF8
Идентификатор кодека/Информация : UTF-8 Plain Text
Заголовок : SDH
Язык : English
Default : Нет
Forced : Нет
DURATION : 01:25:19.614000000
NUMBER_OF_FRAMES : 2267
NUMBER_OF_BYTES : 70051
_STATISTICS_WRITING_APP : mkvmerge v9.4.0 ('Knurl') 64bit
_STATISTICS_WRITING_DATE_UTC : 2016-08-22 21:04:33
_STATISTICS_TAGS : BPS DURATION NUMBER_OF_FRAMES NUMBER_OF_BYTES

Меню
00:00:00.000 : en:00:00:00.000
00:06:30.890 : en:00:06:30.890
00:09:50.381 : en:00:09:50.381
00:13:05.535 : en:00:13:05.535
00:17:37.890 : en:00:17:37.890
00:22:13.082 : en:00:22:13.082
00:27:34.278 : en:00:27:34.278
00:31:54.454 : en:00:31:54.454
00:38:36.022 : en:00:38:36.022
00:44:43.222 : en:00:44:43.222
00:50:42.039 : en:00:50:42.039
00:54:32.811 : en:00:54:32.811
01:00:54.609 : en:01:00:54.609
01:04:14.684 : en:01:04:14.684
01:08:26.644 : en:01:08:26.644
01:12:54.370 : en:01:12:54.370
01:16:34.423 : en:01:16:34.423
01:20:45.215 : en:01:20:45.215
01:23:18.994 : en:01:23:18.994
01:26:03.700 : en:01:26:03.700
скриншот   скриншот   скриншот   скриншот  

Релиз от: piratbit.org



Скачать Соседи. На тропе войны 2 через торрент http://i74.fastpic.ru/big/2015/1218/b5/c39d072d168dbcde95d1a17f670689b5.gif Скачать фильм Соседи. На тропе войны 2 через торрент бесплантно в хорошем качестве В ролях » Сет Роген, Зак Эфрон, Роуз Бирн, Хлоя Грейс Морец, Айк Баринхолц, Кирси Клемонс, Дэйв Франко, Джеррод Кармайкл, Кристофер ... 7.7 10 6
Торрент: Зарегистрирован [2016-08-23 15:06] · скачан: 291 раз
Статус: √ проверено
Размер: 1.42 GB
Как cкачать? Как скачать Соседи. На тропе войны 2 через торрент | UTorrent

% Раздел Тема Автор DL S | L
Фильмы [HD 720p, 1080p] (Хороший звук DUB, MVO) [ 11.39 GB ] Соседи. На тропе войны 2 / Neighbors 2: Sorority Rising [2016 BDRip 1080p] Dub $-DRON-$ Скачать
1 | 0
T Фильмы без перевода [ 4.37 GB ] Соседи. На тропе войны 2 / Neighbors 2: Sorority Rising [2016 BDRip 720p [Оригинал] smaster Скачать
1 | 0
Фильмы [HD 720p, 1080p] (Хороший звук DUB, MVO) [ 6.06 GB ] Соседи. На тропе войны 2 / Neighbors 2: Sorority Rising [2016 BDRip 720p] Dub $-DRON-$ Скачать
1 | 0
Фильмы (WEB-DL 720p, 1080p) [ 3.4 GB ] Соседи. На тропе войны 2 / Neighbors 2: Sorority Rising [2016 WEB-DL 1080p] White Smoke Скачать
1 | 0
Фильмы 2016 [DVDrip, WEB-DLRip, HDrip] (DUB, MVO) [ 1.42 GB ] Соседи. На тропе войны 2 / Neighbors 2: Sorority Rising [2016 BDRip ] Twi7ter Скачать
1 | 0
R.G. Resident & PiratVoice - Фильмы, Видео [ 2.07 GB ] Соседи. На тропе войны 2 / Neighbors 2: Sorority Rising [2016 BDRip-AVC ] schultz Скачать
1 | 0
Фильмы без перевода [ 22.42 GB ] Соседи. На тропе войны 2 / Neighbors 2: Sorority Rising [2016 BD Remux [Оригинал] smaster Скачать
1 | 0

28-11-2019 20:33  

Отключить всю рекламу на сайте

    Дорогой пользователь! Огромная просьба, поблагодарите релизера, оцените раздачу и оставьте свои комментарий, если Вы скачали Соседи. На тропе войны 2 через торрент бесплатно! Внесите свою лепту в развитие PiratBit!
    Комментировать посты могут только пользователи прошедшие не сложную регистрацию
    Показать сообщения:    

    Соседи. На тропе войны 2 через торрент
    Скачать бесплатно Соседи. На тропе войны 2
    Соседи. На тропе войны 2 скачать торрент
    Соседи. На тропе войны 2 смотреть онлайн
    Cкачать фильм Соседи. На тропе войны 2 бесплатно
    Соседи. На тропе войны 2 скачать торрент в хорошем качестве
    Соседи. На тропе войны 2 смотреть онлайн бесплатно в хорошем качестве


    Вы не можете начинать темы
    Вы не можете отвечать на сообщения
    Вы не можете редактировать свои сообщения
    Вы не можете удалять свои сообщения
    Вы не можете голосовать в опросах
    Вы не можете прикреплять файлы к сообщениям
    Вы можете скачивать файлы