Лицензия

MVO

1

1 сезон

Лицензия

Лицензия

13

MVO

1 сезон

Deluxe Edition

pack

Рекомендуем

30

Repack

ВАЖНО

ВАЖНО

Ghostwire

RePack

jed

RePack

fifa19

RePack

RDR2

RePack

NEED FOR SPEED™ PAYBACK

RePack

Кинопоиск HD

 Острые козырьки 6 сезон

6 сезон

FAR CRY 6

RePack

Лицензия

MVO

1

1 сезон

1 сезон

Лицензия

  

Вольница (Григорий Рошаль) [1955, СССР, драма, история, SATRip от AVP Studio]

Вольница через торрент piratbit.org

Размер: 1.46 GB | Добавлен: 6 лет 1 мес. назад | Торрент скачан:22 раза
Смотреть онлайн Вольница | Скачать   

25-08-2016 09:59 Вольница Скачать торрент  

Вольница
Страна: СССР
Производство: Мосфильм

Жанр: драма, история
Год выпуска: 1955
Продолжительность: 01:39:55

Перевод: Не требуется
Cубтитры: нет
Оригинальная аудиодорожка: русский

Режиссер: Григорий Рошаль

В ролях:
Миша Меркулов, Руфина Нифонтова, Всеволод Платов, Татьяна Конюхова, Артур Эйзен, Вера Енютина, Леонид Пархоменко, Николай Гладков, Владимир Балашов, Александр Хвыля, Александр Борисов, Елена Адамайтис-Астангова, Юрий Белов, Валентина Ананьина, Валентина Березуцкая, Майя Булгакова, Мария Виноградова, Олеся Иванова, Мария Кремнёва, Сергей Троицкий...
Полный список актёров

Описание:
По одноименной повести Федора Гладкова.
Драма из жизни крестьянской семьи, приехавшей на рыбные промыслы в Астрахань. Действие фильма происходит в конце XIX - начале ХХ вв. Первые роли в кино Юрия Белова, Руфины Нифонтовой, Майи Булгаковой и Валентины Владимировой (эпизод).

Источник: DVB
Качество видео: SATRip
Формат видео: AVI

Видео: 704x528 (4:3), 25 fps, XviD ~ 1890 kbps avg, 0.203 bit/pixel
Аудио: 48 kHz, Dolby Digital AC3 2.0, 192 kbps

Раздача от:
Общее
Полное имя : Volnica.1955.SATRip_[New-team]_by_AVP_Studio.avi
Формат : AVI
Формат/Информация : Audio Video Interleave
Размер файла : 1,46 Гбайт
Продолжительность : 1 ч. 39 м.
Общий поток : 2091 Кбит/сек
Программа кодирования : VirtualDubMod 1.5.10.3 | www.virtualdub-fr.org || (build 2550/release)
Библиотека кодирования : VirtualDubMod build 2550/release

Видео
Идентификатор : 0
Формат : MPEG-4 Visual
Профиль формата : Advanced Simple@L5
Параметр BVOP формата : 1
Параметр QPel формата : Нет
Параметр GMC формата : Без точки перехода
Параметр матрицы формата : Выборочная
Идентификатор кодека : XVID
Идентификатор кодека/Подсказка : XviD
Продолжительность : 1 ч. 39 м.
Битрейт : 1890 Кбит/сек
Ширина : 704 пикселя
Высота : 528 пикселей
Соотношение сторон : 4:3
Частота кадров : 25,000 кадров/сек
Цветовое пространство : YUV
Субдискретизация насыщенности : 4:2:0
Битовая глубина : 8 бит
Тип развёртки : Прогрессивная
Метод сжатия : С потерями
Бит/(Пиксели*Кадры) : 0.203
Размер потока : 1,32 Гбайт (90%)
Библиотека кодирования : XviD 1.2.1 (UTC 2008-12-04)

Аудио
Идентификатор : 1
Формат : AC-3
Формат/Информация : Audio Coding 3
Расширение режима : CM (complete main)
Параметр Endianness формата : Big
Идентификатор кодека : 2000
Продолжительность : 1 ч. 39 м.
Вид битрейта : Постоянный
Битрейт : 192 Кбит/сек
Каналы : 2 канала
Расположение каналов : Front: L R
Частота : 48,0 КГц
Частота кадров : 31,250 кадров/сек (1536 spf)
Метод сжатия : С потерями
Размер потока : 137 Мбайт (9%)
Выравнивание : Разделение по промежуткам
Продолжительность промежутка : 40 мс. (1,00 видеокадр)
Время предзагрузки промежутка : 500 мс



Скачать Вольница через торрент http://s06.radikal.ru/i179/1611/79/dab4742f0866.png Скачать, смотреть онлайн Вольница бесплантно в хорошем качестве Описание:По одноименной повести Федора Гладкова.Драма из жизни крестьянской семьи, приехавшей на рыбные промыслы в Астрахань. Действие ... 10 10 1
Info! Золотая раздача, скачанное не засчитывается.
Торрент: Зарегистрирован [2016-08-25 09:59] · скачан: 22 раз
Статус: √ проверено
Размер: 1.46 GB
Как cкачать? Как скачать Вольница через торрент | UTorrent

% Раздел Тема Автор DL S | L
Кино СССР [ 1.46 GB ] Вольница | | SATRip-AVC от AVP Studio AVP Studio Скачать
1 | 0
Кино СССР [ 749 MB ] Вольница | | SATRip от AVP Studio AVP Studio Скачать
1 | 0

28-11-2019 20:33  

Отключить вcю реклaмy на сайте

    Дорогой пользователь! Огромная просьба, поблагодарите релизера, оцените раздачу и оставьте свои комментарий, если Вы скачали Вольница через торрент бесплатно!!
    Комментировать посты могут только пользователи прошедшие не сложную регистрацию
    Показать сообщения:    


    Вольница через торрент
    Скачать бесплатно Вольница
    Вольница скачать торрент
    Вольница смотреть онлайн
    Cкачать фильм Вольница бесплатно
    Вольница скачать торрент в хорошем качестве
    Вольница смотреть онлайн бесплатно в хорошем качестве
    Вы не можете начинать темы
    Вы не можете отвечать на сообщения
    Вы не можете редактировать свои сообщения
    Вы не можете удалять свои сообщения
    Вы не можете голосовать в опросах
    Вы не можете прикреплять файлы к сообщениям
    Вы можете скачивать файлы