Лицензия

MVO

1

1 сезон

Лицензия

Лицензия

13

MVO

1 сезон

Deluxe Edition

pack

Рекомендуем

30

Repack

ВАЖНО

ВАЖНО

Ghostwire

RePack

jed

RePack

fifa19

RePack

RDR2

RePack

NEED FOR SPEED™ PAYBACK

RePack

Кинопоиск HD

 Острые козырьки 6 сезон

6 сезон

FAR CRY 6

RePack

Лицензия

MVO

1

1 сезон

1 сезон

Лицензия

  

Илья Муромец (Александр Птушко) [1956, СССР, фэнтези, HDTVRip от AVP Studio]

Илья Муромец через торрент piratbit.org

Размер: 1.09 GB | Добавлен: 6 лет назад | Торрент скачан:21 раз
Смотреть онлайн Илья Муромец | Скачать   

28-08-2016 08:07 Илья Муромец Скачать торрент  

Илья Муромец
Страна: СССР
Производство: Мосфильм
Жанр: фэнтези
Год выпуска: 1956
Продолжительность: 01:26:46

Перевод: не требуется
Оригинальная аудиодорожка: русский
Cубтитры: нет

Режиссер: Александр Птушко

В ролях: Борис Андреев, Шукур Бурханов, Андрей Абрикосов, Наталья Медведева, Нинель Мышкова, Сергей Мартинсон, Георгий Дёмин, Александр Шворин, Владимир Соловьев, Михаил Пуговкин, Сергей Столяров, Ия Арепина, Тамара Носова, Александра Данилова, Николай Гладков, Пол Фрис, Майк Уоллес, Ау-Сон-Хи, Муратбек Рыскулов, Владимир Тягушев, Садыкбек Джаманов, Шамши Тюменбаев...
Полный список актёров

Описание:
Защитник Руси, богатырь Илья Муромец по навету бояр попадает в княжеское подземелье. Но когда на родную землю вновь приходит беда, вынужден князь идти на поклон Муромцу и друзьям его — Алеше Поповичу и Добрыне Никитичу…

Исходник: HDTV
Тип релиза: HDTVRip
Контейнер: AVI

Видео: 720x304 (2,35:1), 29,970 fps, XviD ~ 1593 kbps avg, 0.243 bit/pixel
Аудио: 48 kHz, Dolby Digital AC3 2.0, 192 kbps

Раздача от:
Общее
Полное имя : E:\Tracker\2016\Илья Муромец\Iliya.Muromec.1956.HDTVRip_[New-team]_by_AVP_Studio.avi
Формат : AVI
Формат/Информация : Audio Video Interleave
Размер файла : 1,09 Гбайт
Продолжительность : 1 ч. 26 м.
Общий поток : 1796 Кбит/сек
Программа кодирования : VirtualDubMod 1.5.10.3 | www.virtualdub-fr.org || (build 2550/release)
Библиотека кодирования : VirtualDubMod build 2550/release

Видео
Идентификатор : 0
Формат : MPEG-4 Visual
Профиль формата : Advanced Simple@L5
Параметр BVOP формата : 1
Параметр QPel формата : Нет
Параметр GMC формата : Без точки перехода
Параметр матрицы формата : Выборочная
Идентификатор кодека : XVID
Идентификатор кодека/Подсказка : XviD
Продолжительность : 1 ч. 26 м.
Битрейт : 1593 Кбит/сек
Ширина : 720 пикселей
Высота : 304 пикселя
Соотношение сторон : 2,35:1
Частота кадров : 29,970 (29970/1000) кадров/сек
Цветовое пространство : YUV
Субдискретизация насыщенности : 4:2:0
Битовая глубина : 8 бит
Тип развёртки : Прогрессивная
Метод сжатия : С потерями
Бит/(Пиксели*Кадры) : 0.243
Размер потока : 988 Мбайт (89%)
Библиотека кодирования : XviD 1.2.1 (UTC 2008-12-04)

Аудио
Идентификатор : 1
Формат : AC-3
Формат/Информация : Audio Coding 3
Расширение режима : CM (complete main)
Параметр Endianness формата : Big
Идентификатор кодека : 2000
Продолжительность : 1 ч. 26 м.
Вид битрейта : Постоянный
Битрейт : 192 Кбит/сек
Каналы : 2 канала
Расположение каналов : Front: L R
Частота : 48,0 КГц
Частота кадров : 31,250 кадров/сек (1536 spf)
Метод сжатия : С потерями
Размер потока : 119 Мбайт (11%)
Выравнивание : Разделение по промежуткам
Продолжительность промежутка : 33 мс. (1,00 видеокадр)
Время предзагрузки промежутка : 500 мс



Скачать Илья Муромец через торрент http://s2.hostingkartinok.com/uploads/images/2013/03/24cfd42f820632987ff966e87457a8a3.png Скачать, смотреть онлайн Илья Муромец бесплантно в хорошем качестве Описание:Защитник Руси, богатырь Илья Муромец по навету бояр попадает в княжеское подземелье. Но когда на родную землю вновь приходит беда, ... 10 10 2
Info! Золотая раздача, скачанное не засчитывается.
Торрент: Зарегистрирован [2016-08-28 08:07] · скачан: 21 раз
Статус: √ проверено
Размер: 1.09 GB
Как cкачать? Как скачать Илья Муромец через торрент | UTorrent

% Раздел Тема Автор DL S | L
Кино СССР [ 1.45 GB ] Илья Муромец | | HDTVRip от AVP Studio AVP Studio Скачать
1 | 0
Кино СССР [ 745 MB ] Илья Муромец | | HDTVRip от AVP Studio AVP Studio Скачать
1 | 0
Наши фильмы (DVD фильмы) [ 4.37 GB ] Илья Муромец | MVO) + Sub | Илья Муромец (Александр Птушко AVP Studio Скачать
1 | 0
Кино СССР [ 744 MB ] Илья Муромец | | DVDRip от AVP Studio AVP Studio Скачать
1 | 0
Кино СССР [ 1.37 GB ] Илья Муромец | | DVDRip VORLKED Скачать
1 | 0

28-11-2019 20:33  

Отключить вcю реклaмy на сайте

28-08-2016 13:02 Илья Муромец Скачать торрент  

Советская классика на все времена)



    Дорогой пользователь! Огромная просьба, поблагодарите релизера, оцените раздачу и оставьте свои комментарий, если Вы скачали Илья Муромец через торрент бесплатно!!
    Комментировать посты могут только пользователи прошедшие не сложную регистрацию
    Показать сообщения:    


    Илья Муромец через торрент
    Скачать бесплатно Илья Муромец
    Илья Муромец скачать торрент
    Илья Муромец смотреть онлайн
    Cкачать фильм Илья Муромец бесплатно
    Илья Муромец скачать торрент в хорошем качестве
    Илья Муромец смотреть онлайн бесплатно в хорошем качестве
    Вы не можете начинать темы
    Вы не можете отвечать на сообщения
    Вы не можете редактировать свои сообщения
    Вы не можете удалять свои сообщения
    Вы не можете голосовать в опросах
    Вы не можете прикреплять файлы к сообщениям
    Вы можете скачивать файлы