1 сезон

3 сезон

iTunes

1

iTunes

DUB Netflix

iTunes

13

1 сезон

RePack

30

Deluxe

pack

Легкие деньги

ВАЖНО

ИГРА 18+

pack

RePack

MK11

RePack

jed

RePack

fifa19

RePack

RDR2

RePack

NEED FOR SPEED™ PAYBACK

4 сезон

9 сезон

Бесстыжие 9 сезон

Все сериалы

все сериалы на PB.wtf

RePack

FAR CRY 5

Anonymous, доброй ночи, мы не успеваем до 1 числа собрать деньги на оплату серверов, помогите нам пожалуйста в это трудное время. В качестве благодарности мы отключим Вам всю рекламу на сайте (укажите свой ник в строку Ваше имя)!

×
  
Magnet ссылка

Лапочка 3 / Honey 3: Dare to Dance [2016, Мелодрама, семейный, BDRip-AVC от _denis_100 / NNNB] Лицензия piratbit.org

Лапочка 3 через торрент piratbit.org

Размер: 2.17 GB | Добавлен: 4 года 9 мес. назад | Торрент скачан:195 раз
Скачать  

29-08-2016 04:48 Лапочка 3 Скачать торрент  

Лапочка 3 / Honey 3: Dare to Dance



Название: Лапочка 3
Оригинальное название: Honey 3: Dare to Dance
Год выпуска: 2016
Жанр: Мелодрама, семейный
Выпущено: США, Capital Arts Entertainment, Universal 1440 Entertainment, Universal Pictures
Длительность: 01:36:16
Перевод: Дублированный
Субтитры: русские , английские
Режиссер: Билле Вудрафф
В ролях: Кэсси, Кенни Вормолд, Бобби Локвуд, Дена Каплан, Сивуйеле Нгеси, Питер Батлер, Эдриан Голли, Клэйтон Эвертсон

Описание: В учебное время в колледже Кейптауна, Мили Мартин решает развеяться, чтобы отвлечься от строгой школьной политики. В поисках того, как использовать свой талант танцовщицы, при этом вдохновив окружающих, Мили арендует закрывшийся театр, чтобы показать «Ромео и Джульетта» в хип-хоп стиле. Но так же, как это было между Капулетти и Монтекками, конфликты между актерами угрожают всей постановке...

Качество: BDRip-AVC
Контейнер (Расширение): MKV
Видео: 1024x576, 2786 Кбит/сек, 23,976 кадр/сек, 0,197 Бит[Пиксели*Кадры]
Аудио №1: русский AC3 5.1 48 kHz 448 kbps 16 bit - Дублированный
Навигация по главам(Чаптеры): естьАвтор рипа: Сообщество: Переводы к фильмам:

Код:

Format                      : Matroska
Format version              : Version 2
File size                   : 2.17 GiB
Duration                    : 1h 36mn
Overall bit rate            : 3 226 Kbps
Movie name                  : Honey 3: Dare to Dance.2016.BDRip-AVC.[denis100]
Encoded date                : UTC 2016-08-29 04:30:19
Writing application         : mkvmerge v5.8.0 ('No Sleep / Pillow') built on Sep  2 2012 15:37:04
Writing library             : libebml v1.2.3 + libmatroska v1.3.0

Video
ID                          : 1
Format                      : AVC
Format/Info                 : Advanced Video Codec
Format profile              : High@L4.1
Format settings, CABAC      : Yes
Format settings, ReFrames   : 11 frames
Codec ID                    : V_MPEG4/ISO/AVC
Duration                    : 1h 36mn
Bit rate                    : 2 786 Kbps
Width                       : 1 024 pixels
Height                      : 576 pixels
Display aspect ratio        : 16:9
Frame rate mode             : Constant
Frame rate                  : 23.976 fps
Color space                 : YUV
Chroma subsampling          : 4:2:0
Bit depth                   : 8 bits
Scan type                   : Progressive
Bits/(Pixel*Frame)          : 0.197
Stream size                 : 1.83 GiB (84%)
Title                       : Honey 3: Dare to Dance.2016.BDRip-AVC.[denis100].NNNB
Writing library             : x264 core 148 r2705 3f5ed56
Encoding settings           : cabac=1 / ref=11 / deblock=1:-3:-3 / analyse=0x3:0x133 / me=umh / subme=11 / psy=1 / psy_rd=1.00:0.07 / mixed_ref=1 / me_range=32 / chroma_me=1 / trellis=2 / 8x8dct=1 / cqm=0 / deadzone=21,11 / fast_pskip=0 / chroma_qp_offset=-3 / threads=6 / lookahead_threads=1 / sliced_threads=0 / nr=0 / decimate=1 / interlaced=0 / bluray_compat=0 / constrained_intra=0 / bframes=10 / b_pyramid=2 / b_adapt=2 / b_bias=0 / direct=3 / weightb=1 / open_gop=0 / weightp=2 / keyint=240 / keyint_min=23 / scenecut=40 / intra_refresh=0 / rc=2pass / mbtree=0 / bitrate=2786 / ratetol=1.0 / qcomp=0.60 / qpmin=0 / qpmax=69 / qpstep=4 / cplxblur=20.0 / qblur=0.5 / ip_ratio=1.40 / pb_ratio=1.30 / aq=2:0.80
Language                    : English
Default                     : Yes
Forced                      : No

Audio
ID                          : 2
Format                      : AC-3
Format/Info                 : Audio Coding 3
Mode extension              : CM (complete main)
Format settings, Endianness : Big
Codec ID                    : A_AC3
Duration                    : 1h 36mn
Bit rate mode               : Constant
Bit rate                    : 448 Kbps
Channel(s)                  : 6 channels
Channel positions           : Front: L C R, Side: L R, LFE
Sampling rate               : 48.0 KHz
Compression mode            : Lossy
Stream size                 : 309 MiB (14%)
Title                       : Дублированный
Language                    : Russian
Default                     : Yes
Forced                      : No

Text #1
ID                          : 3
Format                      : UTF-8
Codec ID                    : S_TEXT/UTF8
Codec ID/Info               : UTF-8 Plain Text
Language                    : Russian
Default                     : No
Forced                      : No

Text #2
ID                          : 4
Format                      : UTF-8
Codec ID                    : S_TEXT/UTF8
Codec ID/Info               : UTF-8 Plain Text
Language                    : English
Default                     : No
Forced                      : No

Menu
00:00:00.000                : en:Chapter 01
00:04:30.770                : en:Chapter 02
00:08:19.957                : en:Chapter 03
00:12:40.843                : en:Chapter 04
00:17:15.826                : en:Chapter 05
00:22:19.463                : en:Chapter 06
00:27:58.843                : en:Chapter 07
00:32:03.546                : en:Chapter 08
00:39:09.305                : en:Chapter 09
00:44:10.773                : en:Chapter 10
00:51:03.060                : en:Chapter 11
00:54:47.826                : en:Chapter 12
01:01:20.009                : en:Chapter 13
01:06:50.798                : en:Chapter 14
01:10:44.406                : en:Chapter 15
01:14:29.715                : en:Chapter 16
01:22:31.196                : en:Chapter 17
01:27:23.780                : en:Chapter 18
01:30:38.808                : en:Chapter 19
01:32:43.516                : en:Chapter 20

piratbit.org



Скачать Лапочка 3 через торрент http://i6.imageban.ru/out/2016/08/29/3830597d1e5a62812d7e3ce1d24700a4.png Скачать фильм Лапочка 3 через торрент бесплантно в хорошем качестве Описание: В учебное время в колледже Кейптауна, Мили Мартин решает развеяться, чтобы отвлечься от строгой школьной политики. В поисках ... 10 10 6
Info! Золотая раздача, скачанное не засчитывается.
Торрент: Зарегистрирован [2016-08-29 04:48] · скачан: 195 раз
Статус: √ проверено
Размер: 2.17 GB
Как cкачать? Как скачать Лапочка 3 через торрент | UTorrent

% Раздел Тема Автор DL S | L
Фильмы (Blu-ray, BD-Remux, HDDVD) [ 36.15 GB ] Лапочка 3 / Honey 3: Dare to Dance [2016 Blu-Ray CEE] DUB лицензия Russian Mafia Скачать
1 | 0
Фильмы (Blu-ray, BD-Remux, HDDVD) [ 21.3 GB ] Лапочка 3 / Honey 3: Dare to Dance [2016 Мело BDRemux 1080p] от ExKinoRay / Russian Mafia Скачать
1 | 0

28-11-2019 20:33  

Отключить всю рекламу на сайте

    Дорогой пользователь! Огромная просьба, поблагодарите релизера, оцените раздачу и оставьте свои комментарий, если Вы скачали Лапочка 3 через торрент бесплатно! Внесите свою лепту в развитие PiratBit!
    Комментировать посты могут только пользователи прошедшие не сложную регистрацию
    Показать сообщения:    

    Лапочка 3 через торрент
    Скачать бесплатно Лапочка 3
    Лапочка 3 скачать торрент
    Лапочка 3 смотреть онлайн
    Cкачать фильм Лапочка 3 бесплатно
    Лапочка 3 скачать торрент в хорошем качестве
    Лапочка 3 смотреть онлайн бесплатно в хорошем качестве


    Вы не можете начинать темы
    Вы не можете отвечать на сообщения
    Вы не можете редактировать свои сообщения
    Вы не можете удалять свои сообщения
    Вы не можете голосовать в опросах
    Вы не можете прикреплять файлы к сообщениям
    Вы можете скачивать файлы