1 сезон

3 сезон

iTunes

1

iTunes

DUB Netflix

iTunes

13

1 сезон

RePack

30

Deluxe

pack

Легкие деньги

ВАЖНО

ИГРА 18+

pack

RePack

MK11

RePack

jed

RePack

fifa19

RePack

RDR2

RePack

NEED FOR SPEED™ PAYBACK

4 сезон

9 сезон

Бесстыжие 9 сезон

Все сериалы

все сериалы на PB.wtf

RePack

FAR CRY 5

Anonymous, доброй ночи, мы не успеваем до 1 числа собрать деньги на оплату серверов, помогите нам пожалуйста в это трудное время. В качестве благодарности мы отключим Вам всю рекламу на сайте (укажите свой ник в строку Ваше имя)!

×
  
Magnet ссылка

Первый мститель: Противостояние / Captain America: Civil War (Энтони Руссо, Джо Руссо) [2016, Фантастика, боевик, триллер, приключения, HDRip / iTunes] piratbit.org

Первый мститель: Противостояние через торрент piratbit.org

Размер: 2.05 GB | Добавлен: 4 года 9 мес. назад | Торрент скачан:1303 раза
Скачать  

29-08-2016 21:50 Первый мститель: Противостояние Скачать торрент  

Первый мститель: Противостояние / Captain America: Civil War

Страна: США

Производство: Marvel Entertainment, Marvel Studios Inc., Studio Babelsberg

Год выпуска: 2016

Жанр: фантастика, боевик, триллер, приключения

Продолжительность: 02:27:41

Режиссеры: Энтони Руссо, Джо Руссо

Автор сценария: Кристофер Маркус, Стивен МакФили, Марк Миллар

В ролях: Крис Эванс, Роберт Дауни мл., Скарлетт Йоханссон, Себастьян Стэн, Энтони Маки, Дон Чидл, Джереми Реннер, Чедвик Боузман

Описание: Мстители под руководством Капитана Америки оказываются участниками разрушительного инцидента, имеющего международный масштаб. Эти события заставляют правительство задуматься над тем, чтобы начать регулировать действия всех людей с особыми способностями, введя «Акт о регистрации супергероев», вынуждая их раскрыть свои личности и работать на правительственные службы.

Видя в этом законе нарушение гражданских прав и плевок во всё, что он верит, Стив Роджерс открыто восстаёт против нового режима, ведя за собой группу героев, поддерживающих его мнение. В свою же очередь, Тони Старк видит правильность в новом законе, и становится во главе героев, поддерживающих его. Всё это приводит к неизбежному расколу Мстителей, и гражданской войне между двумя сторонами. Сражаясь друг с другом, Старк и Роджерс не знают о том, что таинственный Барон Земо уже строит свои собственные планы, воспользовавшись расколом величайших героев Земли...



Перевод: Профессиональный (полное дублирование) | iTunes

Субтитры: нет
Качество: HDRip

Формат: АVI

Видео: 720x304 (2.35:1), 23.976 fps, XviD ~1 518 kbps avg

Аудио: 48.0 kHz, AC3 Dolby Digital, 3/2 (L,C,R,l,r) + LFE ch, ~384 kbps

Дата премьеры (мир): 12 апреля 2016

Дата премьеры (РФ): 5 мая 2016, «WDSSPR»

релиз на DVD, Blu-Ray: 2 августа 2016, «Уолт Дисней Компани СНГ»

General

Полное имя : 1Byi.mCtytel.ProtyBOctoyaHye.2016.D.HDRip.2100MB.avi

Формат : AVI

Формат/Информация : Audio Video Interleave

Размер файла : 2,05 Гбайт

Продолжительность : 2 ч. 27 м.

Общий поток : 1990 Кбит/сек

Программа кодирования : VirtualDubMod 1.5.10.3 | www.virtualdub-fr.org || (build 2550/release)

Библиотека кодирования : VirtualDubMod build 2550/release

Видео

Идентификатор : 0

Формат : MPEG-4 Visual

Профиль формата : Advanced Simple@L5

Параметр BVOP формата : Да

Параметр QPel формата : Нет

Параметр GMC формата : Без точки перехода

Параметр матрицы формата : Default (MPEG)

Идентификатор кодека : XVID

Идентификатор кодека/Подсказка : XviD

Продолжительность : 2 ч. 27 м.

Битрейт : 1518 Кбит/сек

Ширина : 720 пикселей

Высота : 304 пикселя

Соотношение сторон : 2,35:1

Частота кадров : 23,976 (24000/1001) кадра/сек

Цветовое пространство : YUV

Субдискретизация насыщенности : 4:2:0

Битовая глубина : 8 бит

Тип развёртки : Прогрессивная

Метод сжатия : С потерями

Бит/(Пиксели*Кадры) : 0.289

Размер потока : 1,57 Гбайт (76%)

Библиотека кодирования : XviD 1.2.1 (UTC 2008-12-04)

Аудио

Идентификатор : 1

Формат : AC-3

Формат/Информация : Audio Coding 3

Расширение режима : CM (complete main)

Параметр Endianness формата : Big

Идентификатор кодека : 2000

Продолжительность : 2 ч. 27 м.

Вид битрейта : Постоянный

Битрейт : 384 Кбит/сек

Каналы : 6 каналов

Расположение каналов : Front: L C R, Side: L R, LFE

Частота : 48,0 КГц

Частота кадров : 31,250 кадров/сек (1536 spf)

Метод сжатия : С потерями

Задержка видео : 800 мс.

Размер потока : 406 Мбайт (19%)

Выравнивание : Разделение по промежуткам
piratbit.org



Скачать Первый мститель: Противостояние через торрент http://img10.lostpic.net/2016/06/30/7604ccfe18b8b69ffed9c25431ed18bb.png Скачать фильм Первый мститель: Противостояние через торрент бесплантно в хорошем качестве Описание: Мстители под руководством Капитана Америки оказываются участниками разрушительного инцидента, имеющего международный масштаб. Эти ... 10 10 18
Info! Золотая раздача, скачанное не засчитывается.
Торрент: Зарегистрирован [2016-08-29 21:50] · скачан: 1 303 раз
Статус: √ проверено
Размер: 2.05 GB
Как cкачать? Как скачать Первый мститель: Противостояние через торрент | UTorrent

% Раздел Тема Автор DL S | L
Фильмы (HD 720p, 1080p) (48-60 fps) [ 4.46 GB ] Первый мститель: Противостояние / Captain America: Civil War [2016 BDRip 720p / 60 FPS ] от R.G. HD-Films slaventi-69 Скачать
1 | 0
Ultra HD (UHD: 2K, 4K, 8K) — видео сверхвысокой чёткости [ 21.79 GB ] Первый мститель: Противостояние / Captain America: Civil War [2016 UHD BDRip 2160p] DUB +AVO+MVO bober100 Скачать
1 | 0
Ultra HD (UHD: 2K, 4K, 8K) — видео сверхвысокой чёткости [ 14.42 GB ] Первый мститель: Противостояние / Captain America: Civil War [2016 UHD BDRip 2160p] DUB [] sheker187 Скачать
2 | 0
Ultra HD (UHD: 2K, 4K, 8K) — видео сверхвысокой чёткости [ 58.4 GB ] Первый мститель: Противостояние / Captain America: Civil War [2016 UHD BDRemux 2160p] DUB +AVO+MVO bober100 Скачать
1 | 0
Фильмы (HD 720p, 1080p) (48-60 fps) [ 8.35 GB ] Первый мститель: Противостояние / Captain America: Civil War [2016 BDRip 720p 60 fps от еnvy / NNNB] DUB | еnvy Скачать
5 | 0
3D Фильмы [ 18.31 GB ] Первый мститель: Противостояние в 3D / Captain America: Civil War 3D [2016 3D BDRip 1080р] DUB / Half OverUnder sheker187 Скачать
1 | 0
3D Фильмы [ 14.36 GB ] Первый мститель: Противостояние в 3Д / Captain America: Civil War 3D [2016 BDrip 1080p] [IMAX Edition] OverUnder / Вертикальная стереопара serega768 Скачать
1 | 0

28-11-2019 20:33  

Отключить всю рекламу на сайте

    Дорогой пользователь! Огромная просьба, поблагодарите релизера, оцените раздачу и оставьте свои комментарий, если Вы скачали Первый мститель: Противостояние через торрент бесплатно! Внесите свою лепту в развитие PiratBit!
    Комментировать посты могут только пользователи прошедшие не сложную регистрацию
    Показать сообщения:    

    Первый мститель: Противостояние через торрент
    Скачать бесплатно Первый мститель: Противостояние
    Первый мститель: Противостояние скачать торрент
    Первый мститель: Противостояние смотреть онлайн
    Cкачать фильм Первый мститель: Противостояние бесплатно
    Первый мститель: Противостояние скачать торрент в хорошем качестве
    Первый мститель: Противостояние смотреть онлайн бесплатно в хорошем качестве


    Вы не можете начинать темы
    Вы не можете отвечать на сообщения
    Вы не можете редактировать свои сообщения
    Вы не можете удалять свои сообщения
    Вы не можете голосовать в опросах
    Вы не можете прикреплять файлы к сообщениям
    Вы можете скачивать файлы