Присоединяйтесь к нам в Telegram!, здесь всегда актуальный адрес сайта, оперативная поддержка и многое другое!!

>

5.9

iTunes

7.4

iTunes

9.4

1 сезон

1

7.4

2 сезон

7.2

iTunes

7.3

1 сезон

13

6.1

iTunes

8.3

Пиратка

30

ULTIMATE

pack

9.9

Лицензия

ВАЖНО

ИГРА 18+

pack

7.3

RePack

MK11

7.7

RePack

jed

7.8

RePack

fifa19

8.5

RePack

RDR2

RePack

NEED FOR SPEED™ PAYBACK

5 сезон

9 сезон

Бесстыжие 9 сезон

Все сериалы

все сериалы на PB.wtf

RePack

FAR CRY 5

Anonymous, добрый вечер, мы катастрофически не успеваем собрать деньги на оплату серверов, помогите нам пожалуйста 5,10,15р., для нас важна любая помощь . В качестве благодарности мы отключим Вам всю рекламу на сайте (укажите свой ник в строку Ваше имя)!

×
  
Magnet ссылка

Кладбище блеска / Rak ti Khon Kaen (Апитчатпон Вирасетакул) [2015 г., фэнтези, драма, BDRip] DVO piratbit.org

Кладбище блеска через торрент piratbit.org

Размер: 2.18 GB | Добавлен: 5 лет 3 мес. назад | Торрент скачан:104 раза
Смотреть онлайн Кладбище блеска | Скачать    Ребята, помогите собрать деньги на оплату серверов!!!

30-08-2016 05:11 Кладбище блеска Скачать торрент  

Кладбище блеска / Rak ti Khon Kaen
Год выпуска: 2015
Страна: Таиланд, Великобритания, Франция, Германия, Малайзия, Корея Южная, Мексика, США, Норвегия
Жанр: фэнтези, драма
Продолжительность: 02:00:40
Перевод: Любительский двухголосый (den904, DeadSno)

Режиссер: Апитчатпон Вирасетакул
Продюссер: Чарльз де Мо, Саймонд Филд, Ганс В. Гайссендёрфер
Сценарий: Апитчатпон Вирасетакул

Премьера в мире: 18 мая 2015



В ролях: Дженджира Понгпас, Банлоп Ломной, Сакда Каэвбуади, Джаринпатра Руеанграм, Петчарат Чаибури, Тавачай Буават, Сюдитрапорн Вонгсрикев, Бхатараторн Сенкрайгул, Понсадхорн Лертсукон, Сасипим Пивансени

Описание: Когда солдат внезапно поражает неизвестная сонная болезнь, и их переводят во временный госпиталь, расположенной в заброшенной школе. Дженира вызывается ухаживать за Иттом, привлекательным солдатом, к которому никогда никто не приходит. Она заводит дружбу с Кенг, молодой ясновидящей, которая помогает близким общаться со спящими солдатами.
Однажды Дженира обнаруживает личный дневник Итта с загадочными письменами и рисунками. Существует ли связь между таинственным синдромом и полным легенд и сказаний местом, расположенном под заброшенной школой? Любовь, магия и мечта об исцелении сплетутся воедино на пути Джениры к пониманию собственной сущности и мира, который ее окружает.

Качество: BDRip (Cemetery.of.Splendor.2015.BDRemux.1080p_by_vedigo)
Формат: AVI
Видео кодек: XviD
Аудио кодек: AC3
Видео: XviD, 2128 Кбит/с, 720x400, 24 кадр/с
Аудио: АС3, 6 ch, 448 Кбит/с, 48 kHz
Релиз от: Koenig
Реклама отсутствует
Общее
Полное имя : Cemetery.of.Splendour.2015.BDRip.avi
Формат : AVI
Формат/Информация : Audio Video Interleave
Профиль формата : OpenDML
Размер файла : 2,18 Гбайт
Продолжительность : 2 ч. 0 м.
Общий поток : 2588 Кбит/сек
Программа кодирования : VirtualDubMod 1.5.10.2 (build 2540/release)
Библиотека кодирования : VirtualDubMod build 2540/release

Видео
Идентификатор : 0
Формат : MPEG-4 Visual
Профиль формата : Advanced Simple@L5
Параметр BVOP формата : 1
Параметр QPel формата : Нет
Параметр GMC формата : Без точки перехода
Параметр матрицы формата : Default (MPEG)
Идентификатор кодека : XVID
Идентификатор кодека/Подсказка : XviD
Продолжительность : 2 ч. 0 м.
Битрейт : 2128 Кбит/сек
Ширина : 720 пикселей
Высота : 400 пикселей
Соотношение сторон : 16:9
Частота кадров : 24,000 кадра/сек
Цветовое пространство : YUV
Субдискретизация насыщенности : 4:2:0
Битовая глубина : 8 бит
Тип развёртки : Прогрессивная
Метод сжатия : С потерями
Бит/(Пиксели*Кадры) : 0.308
Размер потока : 1,79 Гбайт (82%)
Библиотека кодирования : XviD 1.2.0.dev47 (UTC 2006-11-01)

Аудио
Идентификатор : 1
Формат : AC-3
Формат/Информация : Audio Coding 3
Расширение режима : CM (complete main)
Параметр Endianness формата : Big
Идентификатор кодека : 2000
Продолжительность : 2 ч. 0 м.
Вид битрейта : Постоянный
Битрейт : 448 Кбит/сек
Каналы : 6 каналов
Расположение каналов : Front: L C R, Side: L R, LFE
Частота : 48,0 КГц
Частота кадров : 31,250 кадров/сек (1536 spf)
Метод сжатия : С потерями
Размер потока : 387 Мбайт (17%)
Выравнивание : Разделение по промежуткам
Продолжительность промежутка : 42 мс. (1,00 видеокадр)
Время предзагрузки промежутка : 500 мс.

Кладбище блеска скачать торрент

piratbit.org



Скачать Кладбище блеска через торрент https://pic1.kartinco.top/images/10/vkw2t.jpg Скачать, смотреть онлайн Кладбище блеска бесплантно в хорошем качестве Описание: Когда солдат внезапно поражает неизвестная сонная болезнь, и их переводят во временный госпиталь, расположенной в заброшенной ... 10 10 2
Торрент: Зарегистрирован [2016-08-30 05:11] · скачан: 104 раз
Статус: T временная
Размер: 2.18 GB
Как cкачать? Как скачать Кладбище блеска через торрент | UTorrent



Последний раз редактировалось: koenig (2016-08-30 07:18), всего редактировалось 2 раз(а)

28-11-2019 20:33  

Отключить всю рекламу на сайте

30-08-2016 07:00 Кладбище блеска Скачать торрент  

koenig писал(а):

Перевод: Любительский двухголосый (den904, DeadSno)

koenig, указывайте пожалуйста в описании раздач с любительскими переводами, есть реклама или нет.
Подробнее по этой ссылке: Реклама в новых релизах Кино? piratbit.org



30-08-2016 09:17 Кладбище блеска Скачать торрент  

Как фильм?piratbit.org



    Дорогой пользователь! Огромная просьба, поблагодарите релизера, оцените раздачу и оставьте свои комментарий, если Вы скачали Кладбище блеска через торрент бесплатно!
    Комментировать посты могут только пользователи прошедшие не сложную регистрацию
    Показать сообщения:    

    Кладбище блеска через торрент
    Скачать бесплатно Кладбище блеска
    Кладбище блеска скачать торрент
    Кладбище блеска смотреть онлайн
    Cкачать фильм Кладбище блеска бесплатно
    Кладбище блеска скачать торрент в хорошем качестве
    Кладбище блеска смотреть онлайн бесплатно в хорошем качестве


    Вы не можете начинать темы
    Вы не можете отвечать на сообщения
    Вы не можете редактировать свои сообщения
    Вы не можете удалять свои сообщения
    Вы не можете голосовать в опросах
    Вы не можете прикреплять файлы к сообщениям
    Вы можете скачивать файлы