Доктор Стрэндж

Лицензия

Добыча

MVO

Дом дракона

1 сезон

Тор

Лицензия

Мэверик

Лицензия

Там, где раки поют

MVO

Властелин колец

1 сезон

Ultimate

pack

Рекомендуем

30

Repack

ВАЖНО

ВАЖНО

Ghostwire

RePack

jed

RePack

nioh2

RePack

RDR2

RePack

NEED FOR SPEED™ PAYBACK

RePack

скачать торрент

Кинопоиск HD

Острые козырьки 6 сезон

6 сезон

FAR CRY 6

RePack

скачать торрент

Лицензия

скачать торрент

MVO

1

1 сезон

скачать торрент

1 сезон

скачать торрент

Лицензия

  

Звёзды на крыльях (Исаак Шмарук) [1955, CCCP, драма, SATRip-AVC от AVP Studio]

Звёзды на крыльях через торрент piratbit.org

Размер: 1.09 GB | Добавлен: 6 лет 1 мес. назад | Торрент скачан:42 раза
Смотреть онлайн | Скачать   

30-08-2016 08:29 Звёзды на крыльях Скачать торрент  

Звёзды на крыльях
Страна: СССР
Производство: Киностудия им. А.Довженко

Жанр: драма
Год выпуска: 1955
Продолжительность: 01:16:24

Перевод: Не требуется
Cубтитры: нет
Оригинальная аудиодорожка: русский

Режиссер: Исаак Шмарук

В ролях:
Лев Фричинский, Вячеслав Тихонов, Юрий Боголюбов, Александр Антонов, Валентина Куценко, Лариса Кронберг, Константин Барташевич, Александр Холодков, Юрий Тимошенко...
Полный список актёров

Описание:
Авиаучилище. Будущие офицеры эскадрильи реактивных самолётов заняты практической учёбой. При выполнении учебного задания курсант Коренюк нарушает лётную дисциплину. Лётчик-инструктор, считая Коренюка талантливым курсантом, прощает ему этот проступок. Когда же во время очередного учебного полёта Коренюк пикирует на рыболовецкое судно, вину берёт на себя находящийся в кабине курсант Букреев. Букреева арестовывают на десять суток…

Источник: DVB
Качество видео: SATRip-AVC
Формат видео: MKV

Видео: 712->746x560 (4:3), 25 fps, H264 ~ 1846 kbps avg, 0.185 bit/pixel
Аудио: 48 kHz, Dolby Digital AC3 2.0, 192 kbps

Раздача от:
Общее
Полное имя : Zvyozdy.na.krylyah.1955.SATRip-AVC_[New-team]_by_AVP_Studio.mkv
Формат : Matroska
Версия формата : Version 2
Размер файла : 1,09 Гбайт
Продолжительность : 1 ч. 16 м.
Общий поток : 2040 Кбит/сек
Дата кодирования : UTC 2016-08-22 01:06:49
Программа кодирования : mkvmerge v6.1.0 ('Old Devil') built on Mar 4 2013 09:10:42
Библиотека кодирования : libebml v1.3.0 + libmatroska v1.4.0

Видео
Идентификатор : 1
Формат : AVC
Формат/Информация : Advanced Video Codec
Профиль формата : High@L4.1
Параметр CABAC формата : Да
Параметр ReFrames формата : 10 кадров
Идентификатор кодека : V_MPEG4/ISO/AVC
Продолжительность : 1 ч. 16 м.
Битрейт : 1846 Кбит/сек
Ширина : 712 пикселей
Высота : 560 пикселей
Соотношение сторон : 4:3
Режим частоты кадров : Постоянный
Частота кадров : 25,000 кадров/сек
Цветовое пространство : YUV
Субдискретизация насыщенности : 4:2:0
Битовая глубина : 8 бит
Тип развёртки : Прогрессивная
Бит/(Пиксели*Кадры) : 0.185
Размер потока : 988 Мбайт (89%)
Библиотека кодирования : x264 core 148 r2597 e86f3a1
Настройки программы : cabac=1 / ref=10 / deblock=1:-2:-1 / analyse=0x3:0x113 / me=umh / subme=10 / psy=1 / psy_rd=1.00:0.00 / mixed_ref=1 / me_range=32 / chroma_me=1 / trellis=2 / 8x8dct=1 / cqm=0 / deadzone=21,11 / fast_pskip=1 / chroma_qp_offset=-2 / threads=6 / lookahead_threads=1 / sliced_threads=0 / nr=0 / decimate=0 / interlaced=0 / bluray_compat=0 / constrained_intra=0 / bframes=8 / b_pyramid=2 / b_adapt=2 / b_bias=0 / direct=3 / weightb=1 / open_gop=0 / weightp=2 / keyint=250 / keyint_min=25 / scenecut=40 / intra_refresh=0 / rc=2pass / mbtree=0 / bitrate=1846 / ratetol=1.0 / qcomp=0.60 / qpmin=0 / qpmax=69 / qpstep=4 / cplxblur=20.0 / qblur=0.5 / ip_ratio=1.40 / pb_ratio=1.30 / aq=1:1.00
Default : Да
Forced : Нет

Аудио
Идентификатор : 2
Формат : AC-3
Формат/Информация : Audio Coding 3
Расширение режима : CM (complete main)
Параметр Endianness формата : Big
Идентификатор кодека : A_AC3
Продолжительность : 1 ч. 16 м.
Вид битрейта : Постоянный
Битрейт : 192 Кбит/сек
Каналы : 2 канала
Расположение каналов : Front: L R
Частота : 48,0 КГц
Частота кадров : 31,250 кадров/сек (1536 spf)
Метод сжатия : С потерями
Размер потока : 105 Мбайт (9%)
Default : Да
Forced : Нет



Скачать Звёзды на крыльях через торрент http://i83.fastpic.ru/big/2016/0830/e9/5cc4c8061d22ca8b05b9aa0b4b0045e9.png Скачать, смотреть онлайн Звёзды на крыльях бесплантно в хорошем качестве Описание:Авиаучилище. Будущие офицеры эскадрильи реактивных самолётов заняты практической учёбой. При выполнении учебного задания курсант ... 10 10 3
Info! Золотая раздача, скачанное не засчитывается.
Торрент: Зарегистрирован [2016-08-30 08:29] · скачан: 42 раз
Статус: √ проверено
Размер: 1.09 GB
Как cкачать? Как скачать Звёзды на крыльях через торрент | UTorrent

% Раздел Тема Автор DL S | L
Кино СССР [ 745 MB ] Звёзды на крыльях | | SATRip от AVP Studio AVP Studio Скачать
1 | 0
Кино СССР [ 1.09 GB ] Звёзды на крыльях | | SATRip от AVP Studio AVP Studio Скачать
1 | 0

28-11-2019 20:33  


Отключить вcю реклaмy на сайте, в т.ч. и в плеере онлайн просмотра!

    Дорогой пользователь! Огромная просьба, поблагодарите релизера, оцените раздачу и оставьте свои комментарий, если Вы скачали Звёзды на крыльях через торрент бесплатно!!
    Комментировать посты могут только пользователи прошедшие не сложную регистрацию
    Показать сообщения:    


    Звёзды на крыльях через торрент
    Скачать бесплатно Звёзды на крыльях
    Звёзды на крыльях скачать торрент
    Звёзды на крыльях смотреть онлайн
    Cкачать фильм Звёзды на крыльях бесплатно
    Звёзды на крыльях скачать торрент в хорошем качестве
    Звёзды на крыльях смотреть онлайн бесплатно в хорошем качестве
    Вы не можете начинать темы
    Вы не можете отвечать на сообщения
    Вы не можете редактировать свои сообщения
    Вы не можете удалять свои сообщения
    Вы не можете голосовать в опросах
    Вы не можете прикреплять файлы к сообщениям
    Вы можете скачивать файлы