1 сезон

3 сезон

iTunes

1

iTunes

DUB Netflix

iTunes

13

1 сезон

RePack

30

Deluxe

pack

Легкие деньги

ВАЖНО

ИГРА 18+

pack

RePack

MK11

RePack

jed

RePack

fifa19

RePack

RDR2

RePack

NEED FOR SPEED™ PAYBACK

4 сезон

9 сезон

Бесстыжие 9 сезон

Все сериалы

все сериалы на PB.wtf

RePack

FAR CRY 5

Anonymous, добрый день, мы не успеваем до 1 числа собрать деньги на оплату серверов, помогите нам пожалуйста в это трудное время. В качестве благодарности мы отключим Вам всю рекламу на сайте (укажите свой ник в строку Ваше имя)!

×
  
Magnet ссылка

Ольга / Сезон: 1 / Серии: 1-20 из 20 (Алексей Нужный, Игорь Волошин) [2016 , комедия, WEB-DL 720p] [Русский] piratbit.org

Ольга через торрент piratbit.org

Размер: 11.7 GB | Добавлен: 4 года 8 мес. назад | Торрент скачан:876 раз
Скачать  

30-08-2016 14:45 Ольга Скачать торрент  

Ольга


Год выпуска: 2016

Страна: Россия
Жанр: комедия
Продолжительность: 00:22:15
Перевод: Не требуется [Русский]
Режиссер: Алексей Нужный, Игорь Волошин
В ролях:

Яна Троянова (Ольга Терентьева), Василий Кортуков (Юрий Геннадьевич Терентьев, отец Ольги), Алина Алексеева (Лена, младшая сестра Ольги), Ксения Суркова (Аня, дочь Ольги), Сергей Романович (Андрей, парень Ани), Максим Костромыкин (Григорий Юсупов), Фархад Гусейнов (водитель), Борис Дергачев, Александр Шам (Марат), Александр Никольский, Александр Силаев (Лютый), Александр Яицкий
Описание:
Главная героиня воспитывает двух детей от разных браков, заботится об отце-алкоголике и пытается наладить личную жизнь. Старшая дочь Анька учится в ПТУ, думает, что она единственный адекватный член семьи и в её жизни все будет по-другому, младший сын Тимофей, чей отец вернулся к первой семье в Азербайджан, считает, что он уже мужчина, хотя ему всего лишь 11 лет, отец Ольги, бывший футболист, крепко выпивает и постоянно врет, а сестра Ленка пытается жить за счет мужчин, в основном - женатых. Вечно спасая родственников от неприятностей, Ольга живет чужой жизнью и редко думает о себе - до тех пор, пока в нее не влюбляется молодой и положительный водитель газели «Ритуал» Гриша.

Качество: WEB-DL 720p

Формат: MKV
Видео: AVC, 1280x720 (16:9), 2997 kbps, 25 fps, 0,130 bpp
Аудио: AC3 / 2.0 / 44 kHz / 192 kbps /

General
Unique ID : 237628173305029751559591743101080409341 (0xB2C5857E6407875B82BA621A99EB94FD)
Complete name : E:\Ольга S 1 WEB DL 720p\Ольга. 1 сезон, 1 серия.mkv
Format : Matroska
Format version : Version 2
File size : 504 MiB
Duration : 22 min
Overall bit rate : 3 168 kb/s
Encoded date : UTC 2016-08-30 11:33:58
Writing application : mkvmerge v7.8.0 ('River Man') 32bit built on Apr 3 2015 12:11:22
Writing library : libebml v1.3.1 + libmatroska v1.4.2

Video
ID : 1
Format : AVC
Format/Info : Advanced Video Codec
Format profile : Main@L3.1
Format settings, CABAC : Yes
Format settings, ReFrames : 1 frame
Codec ID : V_MPEG4/ISO/AVC
Duration : 22 min
Bit rate : 2 997 kb/s
Width : 1 280 pixels
Height : 720 pixels
Display aspect ratio : 16:9
Frame rate mode : Constant
Frame rate : 25.000 FPS
Color space : YUV
Chroma subsampling : 4:2:0
Bit depth : 8 bits
Scan type : Progressive
Bits/(Pixel*Frame) : 0.130
Stream size : 464 MiB (92%)
Writing library : x264 core 129
Encoding settings : cabac=1 / ref=1 / deblock=1:0:0 / analyse=0x1:0x131 / me=dia / subme=2 / psy=1 / psy_rd=1.00:0.00 / mixed_ref=0 / me_range=16 / chroma_me=1 / trellis=0 / 8x8dct=0 / cqm=0 / deadzone=21,11 / fast_pskip=1 / chroma_qp_offset=0 / threads=3 / lookahead_threads=1 / sliced_threads=0 / nr=0 / decimate=1 / interlaced=0 / bluray_compat=0 / constrained_intra=0 / bframes=0 / weightp=2 / keyint=250 / keyint_min=25 / scenecut=40 / intra_refresh=0 / rc_lookahead=40 / rc=abr / mbtree=1 / bitrate=2997 / ratetol=1.0 / qcomp=0.60 / qpmin=10 / qpmax=51 / qpstep=4 / ip_ratio=1.41 / aq=1:1.00
Default : Yes
Forced : No

Audio
ID : 2
Format : AC-3
Format/Info : Audio Coding 3
Mode extension : CM (complete main)
Format settings, Endianness : Big
Codec ID : A_AC3
Duration : 22 min
Bit rate mode : Constant
Bit rate : 192 kb/s
Channel(s) : 2 channels
Channel positions : Front: L R
Sampling rate : 44.1 kHz
Frame rate : 28.711 FPS (1536 spf)
Compression mode : Lossy
Stream size : 30.6 MiB (6%)
Default : Yes
Forced : No

© Оформление by White Smoke piratbit.org



Скачать Ольга через торрент http://s8.hostingkartinok.com/uploads/images/2016/09/ecccfb724d0b5407feb5a908d7b4fb8e.png Скачать фильм Ольга через торрент бесплантно в хорошем качестве Описание: Главная героиня воспитывает двух детей от разных браков, заботится об отце-алкоголике и пытается наладить личную жизнь. Старшая ... 9.6 10 88
× Info от релизера! Раздача ведётся путём добавления новых серий. Добавлена 20 серия финал сезона
Info! Золотая раздача, скачанное не засчитывается.
Торрент: Зарегистрирован [2016-10-05 19:25] · скачан: 876 раз
Статус: √ проверено
Размер: 11.7 GB
Как cкачать? Как скачать Ольга через торрент | UTorrent

% Раздел Тема Автор DL S | L
Наши сериалы [ 6.64 GB ] Не в деньгах счастье / Сезон: 1 / Серии: 1-4 из 4 [2017 Мело WEB-DL 1080p] bober100 Скачать
2 | 0
TNT serials [ 5.01 GB ] Ольга / Сезон: 4 / Серии: 1-17 из 17 [2020 SATRip] Russian Mafia Скачать
1 | 0
Наши сериалы [ 13.76 GB ] На твоей стороне / Сезон: 1 / Серии: 1 - 24 из 24 [2019 WEBRip AVC] Леонид Ильич Скачать
1 | 0
TNT serials [ 8.52 GB ] Ольга / Сезон: 4 / Серии: 1-17 из 17 + Фильм о фильме [2020 WEBRip 720p] bober100 Скачать
1 | 1
TNT serials [ 17.21 GB ] Ольга / Сезон: 4 / Серии: 1-17 из 17 [2020 HDTV 1080i] bober100 Скачать
1 | 0
TNT serials [ 12.54 GB ] Ольга / Сезон: 4 / Серии: 1-17 из 17 + Фильм о фильме [2020 WEBRip 1080p] bober100 Скачать
1 | 0
TNT serials [ 4.84 GB ] Ольга / Сезон: 4 / Серии: 1-17 из 17 + Фильм о фильме [2020 WEBRip-AVC] bober100 Скачать
3 | 0


Последний раз редактировалось: White Smoke (2016-10-05 19:25), всего редактировалось 25 раз(а)

28-11-2019 20:33  

Отключить всю рекламу на сайте

06-09-2016 13:13 Ольга Скачать торрент  

По мне дак угар..можно поржать!piratbit.org



06-09-2016 21:04 Ольга Скачать торрент  

да офигенный сериал!piratbit.org



06-09-2016 21:05 Ольга Скачать торрент  

bober100, Посмотрите фильм "Волчок" с ней же в главной роли.piratbit.org





Последний раз редактировалось: dangerless (2016-09-07 15:01), всего редактировалось 1 раз

07-09-2016 18:15 Ольга Скачать торрент  

Войну и мир бы пересказал.Сам посмотрел и задебилился перерассказом на 25 минут.На комсомольца похож.Сидит размышляет.piratbit.org



07-09-2016 22:43 Ольга Скачать торрент  

Вот тут она тоже Страна ОЗ piratbit.org



01-10-2016 11:40 Ольга Скачать торрент  

Очень хороший сериал. Мне понравился.piratbit.org



06-10-2016 11:32 Ольга Скачать торрент  

w.a.s.p. писал(а):

Сериал для тех кто жил полноценно в 90-х, очень много там взято из жизни в СССР особенно мысленные позиции, ... так жили люди и сейчас кстати тоже так живут...
А сериал уматный..
Поэтому все так произошло (Э. Суровый)

piratbit.org



09-10-2016 07:35 Ольга Скачать торрент  

спасибо!!piratbit.org



25-03-2018 03:51 Ольга Скачать торрент  

Отличный комедийный сериал,снимали в Москве в Чертаново.Cделано с полноценным натурализмом так как и бывает в жизни у многих людей.Яна Троянова сыграла на все 100 процентов!

P.s Жалко продолжения нет...piratbit.org



12-09-2019 18:44 Ольга Скачать торрент  

Раздайте пожалуйста!piratbit.org



    Дорогой пользователь! Огромная просьба, поблагодарите релизера, оцените раздачу и оставьте свои комментарий, если Вы скачали Ольга через торрент бесплатно! Внесите свою лепту в развитие PiratBit!
    Комментировать посты могут только пользователи прошедшие не сложную регистрацию
    Показать сообщения:    

    Ольга через торрент
    Скачать бесплатно Ольга
    Ольга скачать торрент
    Ольга смотреть онлайн
    Cкачать фильм Ольга бесплатно
    Ольга скачать торрент в хорошем качестве
    Ольга смотреть онлайн бесплатно в хорошем качестве


    Вы не можете начинать темы
    Вы не можете отвечать на сообщения
    Вы не можете редактировать свои сообщения
    Вы не можете удалять свои сообщения
    Вы не можете голосовать в опросах
    Вы не можете прикреплять файлы к сообщениям
    Вы можете скачивать файлы