1 сезон

3 сезон

iTunes

1

iTunes

DUB Netflix

iTunes

13

1 сезон

RePack

30

Deluxe

pack

Легкие деньги

ВАЖНО

ИГРА 18+

pack

RePack

MK11

RePack

jed

RePack

fifa19

RePack

RDR2

RePack

NEED FOR SPEED™ PAYBACK

4 сезон

9 сезон

Бесстыжие 9 сезон

Все сериалы

все сериалы на PB.wtf

RePack

FAR CRY 5

Anonymous, доброй ночи, мы не успеваем до 1 числа собрать деньги на оплату серверов, помогите нам пожалуйста в это трудное время. В качестве благодарности мы отключим Вам всю рекламу на сайте (укажите свой ник в строку Ваше имя)!

×
  
Magnet ссылка

Заклятие 2 / The Conjuring 2 (Джеймс Ван) [2016, ужасы, триллер, детектив, HDRip, Дубляж] iTunes piratbit.org

Заклятие 2 через торрент piratbit.org

Размер: 2.05 GB | Добавлен: 4 года 9 мес. назад | Торрент скачан:1364 раза
Скачать  

30-08-2016 19:51 Заклятие 2 Скачать торрент  


Заклятие 2 / The Conjuring 2
««The next true story from the case files of Ed and Lorraine Warren»»

ИНФОРМАЦИЯ:
Год выпуска:2016
Страна: США, Канада
Жанр: ужасы, триллер, детектив
Продолжительность: 02:13:52
Перевод: Дубляж - [Лицензия / iTunes]
Режиссер: Джеймс Ван

В Ролях:


Патрик Уилсон (Ed Warren), Вера Фармига (Lorraine Warren), Мэдисон Вульф (Janet Hodgson), Фрэнсис О’Коннор (Peggy Hodgson), Лорен Эспозито (Margaret Hodgson), Бенжамин Хэй (Billy Hodgson), Патрик МакОли (Johnny Hodgson), Саймон МакБерни (Maurice Grosse), Мария Дойл Кеннеди (Peggy Nottingham), Саймон Делани (Vic Nottingham), Франка Потенте (Anita Gregory), Боб Адриан (Bill Wilkins)

Описание:
Фильм основан на случае, с которым столкнулись практикующие исследователи паранормальных явлений Эд и Лоррэйн Уоррены. На этот раз вызов будет из северного пригорода Лондона, где семья, состоящая из четырех детей и матери-одиночки, подвергается нападениям потусторонних сил. Супругам предстоит выяснить, какова природа этих явлений, полтергейст ли это, или что-то другое, и главное - почему именно этот дом и именно эта семья.

  • Мировая премьера:13 мая 2016

    ТЕХ.ДАННЫЕ:
    Качество: HDRip
    Формат: AVI
    Видео: XviD, 720x304 (2.35:1), 1907 kbps, 23,976 fps, 0,327 bpp
    Аудио: AC3 / 5.1 / 48 kHz / 384 kbps /


    General
    Complete name : W:\Торенты\The.Conjuring.2.2016.D.HDRip.21OOMB.avi
    Format : AVI
    Format/Info : Audio Video Interleave
    File size : 2.05 GiB
    Duration : 2 h 13 min
    Overall bit rate : 2 195 kb/s
    Writing application : VirtualDubMod 1.5.10.2 (build 2540/release)
    Writing library : VirtualDubMod build 2540/release

    Video
    ID : 0
    Format : MPEG-4 Visual
    Format profile : Advanced Simple@L5
    Format settings, BVOP : 2
    Format settings, QPel : No
    Format settings, GMC : No warppoints
    Format settings, Matrix : Custom
    Codec ID : XVID
    Codec ID/Hint : XviD
    Duration : 2 h 13 min
    Bit rate : 1 715 kb/s
    Width : 720 pixels
    Height : 304 pixels
    Display aspect ratio : 2.35:1
    Frame rate : 23.976 (24000/1001) FPS
    Color space : YUV
    Chroma subsampling : 4:2:0
    Bit depth : 8 bits
    Scan type : Progressive
    Compression mode : Lossy
    Bits/(Pixel*Frame) : 0.327
    Stream size : 1.60 GiB (78%)
    Writing library : XviD 1.2.1 (UTC 2008-12-04)

    Audio
    ID : 1
    Format : AC-3
    Format/Info : Audio Coding 3
    Mode extension : CM (complete main)
    Format settings, Endianness : Big
    Codec ID : 2000
    Duration : 2 h 13 min
    Bit rate mode : Constant
    Bit rate : 384 kb/s
    Channel(s) : 6 channels
    Channel positions : Front: L C R, Side: L R, LFE
    Sampling rate : 48.0 kHz
    Frame rate : 31.250 FPS (1536 spf)
    Compression mode : Lossy
    Delay relative to video : 900 ms
    Stream size : 368 MiB (17%)
    Alignment : Split accross interleaves
    Скриншоты:

    © Оформление by .::Ворон::.
    piratbit.org



  • Скачать Заклятие 2 через торрент https://pic1.kartinco.top/images/10/nbm6v.jpg Скачать фильм Заклятие 2 через торрент бесплантно в хорошем качестве Описание: Фильм основан на случае, с которым столкнулись практикующие исследователи паранормальных явлений Эд и Лоррэйн Уоррены. На этот ... 9.5 10 32
    Info! Золотая раздача, скачанное не засчитывается.
    Торрент: Зарегистрирован [2016-08-30 19:51] · скачан: 1 364 раз
    Статус: √ проверено
    Размер: 2.05 GB
    Как cкачать? Как скачать Заклятие 2 через торрент | UTorrent

    % Раздел Тема Автор DL S | L
    Фильмы 2016 [DVDrip, WEB-DLRip, HDrip] (DUB, MVO) [ 691 MB ] Заклятие 2 / The Conjuring 2 [2016 HDRip PsYcho Скачать
    1 | 0
    Фильмы [HD 720p, 1080p] (Хороший звук DUB, MVO) [ 14.23 GB ] Заклятие 2 / The Conjuring 2 [2016 BDRip 1080p / ] Ворон Скачать
    1 | 0
    Фильмы [HD 720p, 1080p] (Хороший звук DUB, MVO) [ 7.93 GB ] Заклятие 2 / The Conjuring 2 [2016 BDRip 720p] smaster Скачать
    1 | 0
    Фильмы 2016 [DVDrip, WEB-DLRip, HDrip] (DUB, MVO) [ 1.46 GB ] Заклятие 2 / The Conjuring 2 [2016 ВDRip-AVC] Dub / God_Slayer Скачать
    2 | 0
    R.G. Resident & PiratVoice - Фильмы, Видео [ 2.38 GB ] Заклятие 2 / The Conjuring 2 [2016 BDRip-AVC ] schultz Скачать
    1 | 0

    28-11-2019 20:33  

    Отключить всю рекламу на сайте

    30-08-2016 23:49 Заклятие 2 Скачать торрент  

    нормааальноpiratbit.org



    30-08-2016 23:50 Заклятие 2 Скачать торрент  

    еще и 2 есть крассаваpiratbit.org



    30-08-2016 23:50 Заклятие 2 Скачать торрент  

    респектуха братухаpiratbit.org



    31-08-2016 02:45 Заклятие 2 Скачать торрент  

    хорошеееечноpiratbit.org



    31-08-2016 12:31 Заклятие 2 Скачать торрент  

    Мутный фильм кое-как до конца досмотрел,чуть не уснул piratbit.org



    31-08-2016 19:59 Заклятие 2 Скачать торрент  

    Посмотрел. Интересно. Не сильно то и страшно)piratbit.org



    01-09-2016 00:31 Заклятие 2 Скачать торрент  

    Тьом4ик писал(а):

    Посмотрел. Интересно. Не сильно то и страшно)

    Пойдётpiratbit.org



    03-09-2016 10:28 Заклятие 2 Скачать торрент  

    какой-то днищенский босс в концовке, разнес весь дом, всю мебель, сломал дерево молнией, но не додумался сломать карниз, за который держался мужик piratbit.org



      Дорогой пользователь! Огромная просьба, поблагодарите релизера, оцените раздачу и оставьте свои комментарий, если Вы скачали Заклятие 2 через торрент бесплатно! Внесите свою лепту в развитие PiratBit!
      Комментировать посты могут только пользователи прошедшие не сложную регистрацию
      Показать сообщения:    

      Заклятие 2 через торрент
      Скачать бесплатно Заклятие 2
      Заклятие 2 скачать торрент
      Заклятие 2 смотреть онлайн
      Cкачать фильм Заклятие 2 бесплатно
      Заклятие 2 скачать торрент в хорошем качестве
      Заклятие 2 смотреть онлайн бесплатно в хорошем качестве


      Вы не можете начинать темы
      Вы не можете отвечать на сообщения
      Вы не можете редактировать свои сообщения
      Вы не можете удалять свои сообщения
      Вы не можете голосовать в опросах
      Вы не можете прикреплять файлы к сообщениям
      Вы можете скачивать файлы