1 сезон

3 сезон

iTunes

1

iTunes

DUB Netflix

iTunes

13

1 сезон

RePack

30

Deluxe

pack

Легкие деньги

ВАЖНО

ИГРА 18+

pack

RePack

MK11

RePack

jed

RePack

fifa19

RePack

RDR2

RePack

NEED FOR SPEED™ PAYBACK

4 сезон

9 сезон

Бесстыжие 9 сезон

Все сериалы

все сериалы на PB.wtf

RePack

FAR CRY 5

Anonymous, добрый вечер, мы не успеваем до 1 числа собрать деньги на оплату серверов, помогите нам пожалуйста в это трудное время. В качестве благодарности мы отключим Вам всю рекламу на сайте (укажите свой ник в строку Ваше имя)!

×
  
Magnet ссылка

Полтора шпиона / Central Intelligence (Роусон Маршалл Тёрбер) [2016, Комедия, криминал, WEB-DLRip] DUB [iTunes] piratbit.org

Полтора шпиона через торрент piratbit.org

Раздают: 1 [ 0 KB/s ]
Размер: 1.46 GB | Добавлен: 4 года 9 мес. назад | Торрент скачан:1507 раз
Скачать  

31-08-2016 21:44 Полтора шпиона Скачать торрент  

«Они попробуют спасти мир: малыш Харт и скала Джонсон»

Год выпуска » 2016
Страна » США, New Line Cinema, Bluegrass Films, Principato-Young Entertainment
Жанр » Комедия, криминал
Продолжительность » 01:47:31
Перевод » Дублированное [iTunes]
Субтитры » Отсутствуют
В ролях
» Дуэйн Джонсон, Кевин Харт, Эми Райан, Даниэль Николет, Джейсон Бейтман, Аарон Пол, Райан Хансен, Тим Гриффин, Тимоти Джон Смит, Мелисса Маккарти

Режиссёр
» Роусон Маршалл Тёрбер

» От лайка в соцсети до спасения мира - один шаг. Сегодня ты френдишь бывшего одноклассника, а завтра - он тащит тебя под пули. Кто ж знал, что заядлый любитель пончиков превратится в похожего на скалу супершпиона.

• Качество » WEB-DLRip
• Формат » AVI
• Видео кодек » XviD
• Аудио кодек » AC3
• Видео »1552 kb/s, 720x304, 23.976 fps
• Аудио » Русский (AC-3 / 6 ch / 384 kbps / 48,0 КГц / 16 bit )



Бюджет: $105 000 000
Бюджет: $50 000 000
Сборы в США: $126 250 417
Сборы в мире: + $80 070 214 = $206 320 631
Сборы в России: $1 647 336
Дата мировой премьеры: 10 июня 2016
Дата российской премьеры: 7 июля 2016, «UPI»

Код:

Общее
Полное имя                               : F:\P0Lt0ra.Shp1oHa.2016.D.WEB-DLRip.1400MB.avi
Формат                                   : AVI
Формат/Информация                        : Audio Video Interleave
Размер файла                             : 1,46 Гбайт
Продолжительность                        : 1 ч. 47 м.
Общий поток                              : 1945 Кбит/сек
Программа кодирования                    : VirtualDubMod 1.5.10.3 | www.virtualdub-fr.org || (build 2550/release)
Библиотека кодирования                   : VirtualDubMod build 2550/release

Видео
Идентификатор                            : 0
Формат                                   : MPEG-4 Visual
Профиль формата                          : Advanced Simple@L5
Параметр BVOP формата                    : 2
Параметр QPel формата                    : Нет
Параметр GMC формата                     : Без точки перехода
Параметр матрицы формата                 : Default (MPEG)
Идентификатор кодека                     : XVID
Идентификатор кодека/Подсказка           : XviD
Продолжительность                        : 1 ч. 47 м.
Битрейт                                  : 1552 Кбит/сек
Ширина                                   : 720 пикселей
Высота                                   : 304 пикселя
Соотношение сторон                       : 2,35:1
Частота кадров                           : 23,976 кадра/сек
Цветовое пространство                    : YUV
Субдискретизация насыщенности            : 4:2:0
Битовая глубина                          : 8 бит
Тип развёртки                            : Прогрессивная
Метод сжатия                             : С потерями
Бит/(Пиксели*Кадры)                      : 0.296
Размер потока                            : 1,17 Гбайт (80%)
Библиотека кодирования                   : XviD 1.2.1 (UTC 2008-12-04)

Аудио
Идентификатор                            : 1
Формат                                   : AC-3
Формат/Информация                        : Audio Coding 3
Расширение режима                        : CM (complete main)
Параметр Endianness формата              : Big
Идентификатор кодека                     : 2000
Продолжительность                        : 1 ч. 47 м.
Вид битрейта                             : Постоянный
Битрейт                                  : 384 Кбит/сек
Каналы                                   : 6 каналов
Расположение каналов                     : Front: L C R, Side: L R, LFE
Частота                                  : 48,0 КГц
Битовая глубина                          : 16 бит
Метод сжатия                             : С потерями
Размер потока                            : 295 Мбайт (20%)
Выравнивание                             : Разделение по промежуткам
Продолжительность промежутка             : 42  мс. (1,00 видеокадр)
Время предзагрузки промежутка            : 500  мс.

скриншот   скриншот   скриншот   скриншот   скриншот  
piratbit.org



Скачать Полтора шпиона через торрент https://pic1.kartinco.top/images/10/vmpz1.jpg Скачать фильм Полтора шпиона через торрент бесплантно в хорошем качестве В ролях » Дуэйн Джонсон, Кевин Харт, Эми Райан, Даниэль Николет, Джейсон Бейтман, Аарон Пол, Райан Хансен, Тим Гриффин, Тимоти Джон Смит, ... 9.4 10 47
Info! Золотая раздача, скачанное не засчитывается.
Торрент: Зарегистрирован [2016-08-31 21:44] · скачан: 1 507 раз
Статус: √ проверено
Размер: 1.46 GB
Как cкачать? Как скачать Полтора шпиона через торрент | UTorrent

% Раздел Тема Автор DL S | L
Ultra HD (UHD: 2K, 4K, 8K) — видео сверхвысокой чёткости [ 41.15 GB ] Полтора шпиона / Central Intelligence [2016 UHD BDRemux 2160p] DUB [ Blu-Ray CEE] bober100 Скачать
1 | 0
Фильмы 2016 [DVDrip, WEB-DLRip, HDrip] (DUB, MVO) [ 1.46 GB ] Полтора шпиона / Central Intelligence [2016 BDRip] Twi7ter Скачать
1 | 0
Фильмы (Blu-ray, BD-Remux, HDDVD) [ 32.15 GB ] Полтора шпиона / Central Intelligence [2016 Blu-Ray CEE] Russian Mafia Скачать
1 | 0
Фильмы [HD 720p, 1080p] (Хороший звук DUB, MVO) [ 9.22 GB ] Полтора шпиона / Central Intelligence [2016 BDRip 1080p] - [] -Lexx- Скачать
1 | 0
Фильмы (Blu-ray, BD-Remux, HDDVD) [ 22.81 GB ] Полтора шпиона / Central Intelligence [2016 BDRemux 1080p от ExKinoRay] Russian Mafia Скачать
1 | 0
R.G. Resident & PiratVoice - Фильмы, Видео [ 1.46 GB ] Полтора шпиона / Central Intelligence [2016 WEB-DLRip-AVC ] White Smoke Скачать
1 | 0
Фильмы (WEB-DL 720p, 1080p) [ 3.71 GB ] Полтора шпиона / Central Intelligence [2016 WEB-DL 1080p ] White Smoke Скачать
1 | 0

28-11-2019 20:33  

Отключить всю рекламу на сайте

01-09-2016 02:56 Полтора шпиона Скачать торрент  

Народ пишите пжст комментарии как кино. Стоит качать?piratbit.org



01-09-2016 08:53 Полтора шпиона Скачать торрент  

Я посмотрел и в целом очень даже не плохоpiratbit.org



01-09-2016 10:10 Полтора шпиона Скачать торрент  

Не плохо, можно смотреть.piratbit.org



01-09-2016 17:39 Полтора шпиона Скачать торрент  

Evgeniy 23,
это полное УГ. Игра актеров отвратительная. Сюжет тупой. Шутки, если это конечно они, плоские. Худший фильм со Скалой, ИМХОpiratbit.org



02-09-2016 05:10 Полтора шпиона Скачать торрент  

спасибо давно ждал)piratbit.org



02-09-2016 18:16 Полтора шпиона Скачать торрент  

однозначно смотреть!piratbit.org



05-09-2016 06:14 Полтора шпиона Скачать торрент  

Хорошая комедия на разок. Давно ничего нормального не было....это будет получше дерьмовых соседей 2.piratbit.org



05-09-2016 22:59 Полтора шпиона Скачать торрент  

Фильм не смотрел но и так знаю что ни о чем хотя нет отрывок посмотрел Дуэйн Джонсон играет какого-то имбицила а Кевин Харт не люблю этого нигира юмор его бегает орет как баба словом раздражает piratbit.org



14-09-2016 13:39 Полтора шпиона Скачать торрент  

на раз пойдет)piratbit.org



    Дорогой пользователь! Огромная просьба, поблагодарите релизера, оцените раздачу и оставьте свои комментарий, если Вы скачали Полтора шпиона через торрент бесплатно! Внесите свою лепту в развитие PiratBit!
    Комментировать посты могут только пользователи прошедшие не сложную регистрацию
    Показать сообщения:    

    Полтора шпиона через торрент
    Скачать бесплатно Полтора шпиона
    Полтора шпиона скачать торрент
    Полтора шпиона смотреть онлайн
    Cкачать фильм Полтора шпиона бесплатно
    Полтора шпиона скачать торрент в хорошем качестве
    Полтора шпиона смотреть онлайн бесплатно в хорошем качестве


    Вы не можете начинать темы
    Вы не можете отвечать на сообщения
    Вы не можете редактировать свои сообщения
    Вы не можете удалять свои сообщения
    Вы не можете голосовать в опросах
    Вы не можете прикреплять файлы к сообщениям
    Вы можете скачивать файлы