1 сезон

3 сезон

iTunes

1

iTunes

DUB Netflix

iTunes

13

1 сезон

RePack

30

Deluxe

pack

Легкие деньги

ВАЖНО

ИГРА 18+

pack

RePack

MK11

RePack

jed

RePack

fifa19

RePack

RDR2

RePack

NEED FOR SPEED™ PAYBACK

4 сезон

9 сезон

Бесстыжие 9 сезон

Все сериалы

все сериалы на PB.wtf

RePack

FAR CRY 5

Anonymous, добрый вечер, мы не успеваем до 1 числа собрать деньги на оплату серверов, помогите нам пожалуйста в это трудное время. В качестве благодарности мы отключим Вам всю рекламу на сайте (укажите свой ник в строку Ваше имя)!

×
  
Magnet ссылка

Восставший / Risen (Кевин Рейнольдс ) [2016, боевик, драма, детектив, BDRip-AVC от potroks] MVO [iTunes] piratbit.org

Восставший через торрент piratbit.org

Размер: 2.13 GB | Добавлен: 4 года 9 мес. назад | Торрент скачан:668 раз
Скачать  

01-09-2016 10:04 Восставший Скачать торрент  

Восставший / Risen

Год выпуска: 2016
Страна: США / Columbia Pictures...
Жанр: боевик, драма, детектив, приключения
Продолжительность: 01:47:38
Перевод: Профессиональный многоголосый [iTunes]
Субтитры: русские (Андрей Гусев), русские (iTunes)
Навигация по главам: есть
Режиссер: Кевин Рейнольдс
В ролях:

Джозеф Файнс (Clavius), Том Фелтон (Lucius), Питер Фёрт (Pilate), Клифф Кёртис (Yeshua), Мария Ботто (Mary Magdalene), Луис Кальехо (Joses), Антонио Хиль-Мартинес (Joseph of Arimathea), Ричард Этуилл (Polybius), Стюарт Скудамор (Peter), Энди Гэтергуд (Quintus), Стефен Хэйгэн (Bartholomew), Миш Бойко (John)
Описание: 33 год н. э. Римскому трибуну в Иудее дано задание найти пропавшее тело распятого накануне еврея, который, судя по слухам, воскрес.

Качество: BDRip-AVC
Формат: MKV
Видео: AVC, 1080x450 (2,40:1), 2003 kbps, 23,976 fps, 0.172 bpp
Аудио#1: AC3 / 5.1 / 48 kHz / 384 kbps / 16 bit | RUS
Аудио#2: AC3 / 5.1 / 48 kHz / 448 kbps / 16 bit | ENG

Код:

Общее
Уникальный идентификатор : 226209169978136247505194982738343872185 (0xAA2E4D29926AB2FABAC95FED90F5C6B9)
Полное имя : D:\Vosstavshyi.2016.DUAL.BDRip.x264.-HELLYWOOD.mkv
Формат : Matroska
Версия формата : Version 4 / Version 2
Размер файла : 2,13 Гбайт
Продолжительность : 1 ч. 47 м.
Общий поток : 2838 Кбит/сек
Название фильма : Risen (2016)
Дата кодирования : UTC 2016-07-06 03:36:31
Программа кодирования : mkvmerge v5.9.0 ('On The Loose') built on Dec 15 2012 16:39:58
Библиотека кодирования : libebml v1.3.0 + libmatroska v1.4.0

Видео
Идентификатор : 1
Формат : AVC
Формат/Информация : Advanced Video Codec
Профиль формата : High@L4.1
Параметр CABAC формата : Да
Параметр ReFrames формата : 11 кадров
Идентификатор кодека : V_MPEG4/ISO/AVC
Продолжительность : 1 ч. 47 м.
Битрейт : 2003 Кбит/сек
Ширина : 1080 пикселей
Высота : 450 пикселей
Соотношение сторон : 2,40:1
Режим частоты кадров : Постоянный
Частота кадров : 23,976 (24000/1001) кадра/сек
Цветовое пространство : YUV
Субдискретизация насыщенности : 4:2:0
Битовая глубина : 8 бит
Тип развёртки : Прогрессивная
Бит/(Пиксели*Кадры) : 0.172
Размер потока : 1,47 Гбайт (69%)
Заголовок : potroks
Библиотека кодирования : x264 core 146 r2538 121396c
Настройки программы : cabac=1 / ref=11 / deblock=1:-2:-2 / analyse=0x3:0x113 / me=umh / subme=11 / psy=1 / psy_rd=1.00:0.05 / mixed_ref=1 / me_range=48 / chroma_me=1 / trellis=2 / 8x8dct=1 / cqm=0 / deadzone=21,11 / fast_pskip=0 / chroma_qp_offset=-3 / threads=9 / lookahead_threads=2 / sliced_threads=0 / nr=0 / decimate=1 / interlaced=0 / bluray_compat=0 / constrained_intra=0 / bframes=12 / b_pyramid=2 / b_adapt=2 / b_bias=0 / direct=3 / weightb=1 / open_gop=0 / weightp=2 / keyint=240 / keyint_min=23 / scenecut=40 / intra_refresh=0 / rc_lookahead=60 / rc=2pass / mbtree=0 / bitrate=2003 / ratetol=1.0 / qcomp=0.70 / qpmin=0 / qpmax=69 / qpstep=4 / cplxblur=20.0 / qblur=0.5 / vbv_maxrate=14000 / vbv_bufsize=14000 / nal_hrd=none / filler=0 / ip_ratio=1.40 / pb_ratio=1.30 / aq=1:0.80
Язык : English
Default : Да
Forced : Нет

Аудио #1
Идентификатор : 2
Формат : AC-3
Формат/Информация : Audio Coding 3
Расширение режима : CM (complete main)
Параметр Endianness формата : Big
Идентификатор кодека : A_AC3
Продолжительность : 1 ч. 47 м.
Вид битрейта : Постоянный
Битрейт : 384 Кбит/сек
Каналы : 6 каналов
Расположение каналов : Front: L C R, Side: L R, LFE
Частота : 48,0 КГц
Частота кадров : 31,250 кадров/сек (1536 spf)
Метод сжатия : С потерями
Размер потока : 296 Мбайт (14%)
Заголовок : MVO | DD 5.1 @ 384 kbps - iTunes
Язык : Russian
Default : Да
Forced : Да

Аудио #2
Идентификатор : 3
Формат : AC-3
Формат/Информация : Audio Coding 3
Расширение режима : CM (complete main)
Параметр Endianness формата : Big
Идентификатор кодека : A_AC3
Продолжительность : 1 ч. 47 м.
Вид битрейта : Постоянный
Битрейт : 448 Кбит/сек
Каналы : 6 каналов
Расположение каналов : Front: L C R, Side: L R, LFE
Частота : 48,0 КГц
Частота кадров : 31,250 кадров/сек (1536 spf)
Метод сжатия : С потерями
Размер потока : 345 Мбайт (16%)
Заголовок : Original | DD 5.1 @ 448 kbps
Язык : English
Default : Нет
Forced : Нет

Текст #1
Идентификатор : 4
Формат : UTF-8
Идентификатор кодека : S_TEXT/UTF8
Идентификатор кодека/Информация : UTF-8 Plain Text
Заголовок : Andrey Gusev
Язык : Russian
Default : Нет
Forced : Нет

Текст #2
Идентификатор : 5
Формат : UTF-8
Идентификатор кодека : S_TEXT/UTF8
Идентификатор кодека/Информация : UTF-8 Plain Text
Заголовок : iTunes
Язык : Russian
Default : Нет
Forced : Нет

Текст #3
Идентификатор : 6
Формат : UTF-8
Идентификатор кодека : S_TEXT/UTF8
Идентификатор кодека/Информация : UTF-8 Plain Text
Заголовок : iTunes
Язык : Ukrainian
Default : Нет
Forced : Нет

Текст #4
Идентификатор : 7
Формат : UTF-8
Идентификатор кодека : S_TEXT/UTF8
Идентификатор кодека/Информация : UTF-8 Plain Text
Заголовок : Full
Язык : English
Default : Нет
Forced : Нет

Текст #5
Идентификатор : 8
Формат : UTF-8
Идентификатор кодека : S_TEXT/UTF8
Идентификатор кодека/Информация : UTF-8 Plain Text
Заголовок : SDH
Язык : English
Default : Нет
Forced : Нет

Текст #6
Идентификатор : 9
Формат : UTF-8
Идентификатор кодека : S_TEXT/UTF8
Идентификатор кодека/Информация : UTF-8 Plain Text
Заголовок : SDH-Colored
Язык : English
Default : Нет
Forced : Нет

Меню
00:00:00.000 : en:Chapter 01
00:06:50.034 : en:Chapter 02
00:14:18.732 : en:Chapter 03
00:21:47.889 : en:Chapter 04
00:27:34.903 : en:Chapter 05
00:33:21.082 : en:Chapter 06
00:40:03.609 : en:Chapter 07
00:46:19.193 : en:Chapter 08
00:54:06.243 : en:Chapter 09
01:00:06.185 : en:Chapter 10
01:07:53.027 : en:Chapter 11
01:13:54.847 : en:Chapter 12
01:19:46.364 : en:Chapter 13
01:25:42.387 : en:Chapter 14
01:33:16.132 : en:Chapter 15
01:38:41.832 : en:Chapter 16

piratbit.org



Скачать Восставший через торрент http://i85.fastpic.ru/big/2016/0901/2a/d7f34eaf98198ab6dd64beb59d6b942a.png Скачать фильм Восставший через торрент бесплантно в хорошем качестве Описание: 33 год н. э. Римскому трибуну в Иудее дано задание найти пропавшее тело распятого накануне еврея, который, судя по слухам, ... 9.2 10 18
Info! Золотая раздача, скачанное не засчитывается.
Торрент: Зарегистрирован [2016-09-01 10:04] · скачан: 668 раз
Статус: √ проверено
Размер: 2.13 GB
Как cкачать? Как скачать Восставший через торрент | UTorrent

% Раздел Тема Автор DL S | L
Ultra HD (UHD: 2K, 4K, 8K) — видео сверхвысокой чёткости [ 58.47 GB ] Восставший / Risen [2016 UHD Blu-ray 2160p] AVO [А.Дасевич] +DUB +MVO [] bober100 Скачать
1 | 0
Ultra HD (UHD: 2K, 4K, 8K) — видео сверхвысокой чёткости [ 47.47 GB ] Восставший / Risen [2016 UHD BDRemux 2160p] MVO [] bober100 Скачать
1 | 0
Фильмы 2016 [DVDrip, WEB-DLRip, HDrip] (DUB, MVO) [ 1.46 GB ] Восставший / Risen [2016 BDRip] [] Twi7ter Скачать
1 | 0
Фильмы 2016 [DVDrip, WEB-DLRip, HDrip] (DUB, MVO) [ 2.19 GB ] Восставший / Воскресение Христа / Risen [2016 HDRip многоголосый закадровый "BD CEE"] coc900 Скачать
1 | 0
Фильмы (Blu-ray, BD-Remux, HDDVD) [ 32 GB ] Восставший / Risen [2016 Blu-Ray CEE] Russian Mafia Скачать
1 | 0
Фильмы (Blu-ray, BD-Remux, HDDVD) [ 20.65 GB ] Восставший / Risen [2016 BDRemux 1080p] от ExKinoRay / Russian Mafia Скачать
1 | 0
Фильмы 2016 [DVDrip, WEB-DLRip, HDrip] (DUB, MVO) [ 1.41 GB ] Восставший / Risen [2016 BDRip-AVC] MVO potroks Скачать
1 | 0

28-11-2019 20:33  

Отключить всю рекламу на сайте

01-09-2016 16:47 Восставший Скачать торрент  

что по чем???кто смотрел?piratbit.org



    Дорогой пользователь! Огромная просьба, поблагодарите релизера, оцените раздачу и оставьте свои комментарий, если Вы скачали Восставший через торрент бесплатно! Внесите свою лепту в развитие PiratBit!
    Комментировать посты могут только пользователи прошедшие не сложную регистрацию
    Показать сообщения:    

    Восставший через торрент
    Скачать бесплатно Восставший
    Восставший скачать торрент
    Восставший смотреть онлайн
    Cкачать фильм Восставший бесплатно
    Восставший скачать торрент в хорошем качестве
    Восставший смотреть онлайн бесплатно в хорошем качестве


    Вы не можете начинать темы
    Вы не можете отвечать на сообщения
    Вы не можете редактировать свои сообщения
    Вы не можете удалять свои сообщения
    Вы не можете голосовать в опросах
    Вы не можете прикреплять файлы к сообщениям
    Вы можете скачивать файлы