Ссылка на приватное зеркало нашего сайта всего за 1$. Внимание количество ограничено!!!

2 сезон

iTunes

1 сезон

1

iTunes

iTunes

iTunes

1 сезон

RePack

30

ИГРА 18+

pack

ВАЖНО

!!Акция!!

Alien_RageХит недели

RePack

MK11
pack

Забери бонус

RePack

jed

!!Акция!!

Alien_Rage

RePack

fifa19

RePack

Assassins Creed: Odyssey

RePack

NEED FOR SPEED™ PAYBACK

4 сезон

9 сезон

Бесстыжие 9 сезон

Все сериалы

все сериалы на PB.wtf

RePack

FAR CRY 5
  

Носферату, симфония ужаса / Nosferatu, eine Symphonie des Grauens (Фридрих Вильгельм Мурнау / F.W. Murnau) [1922, ужасы, BDRip] Sub (Eng, Rus) piratbit.org

Носферату, симфония ужаса через торрент piratbit.org

Размер: 1.46 GB | Добавлен: 4 года 1 мес. назад | Торрент скачан:40 раз
Скачать  

01-09-2016 10:50 Носферату, симфония ужаса Скачать торрент  

Носферату, симфония ужаса / Nosferatu, eine Symphonie des Grauens

Страна: Германия
Жанр: ужасы
Год выпуска: 1922
Продолжительность: 01:35:11

Перевод: Субтитры
Cубтитры: русские, английские

Режиссер: Фридрих Вильгельм Мурнау / F.W. Murnau

В ролях: Макс Шрек, Густав фон Вангенхайм, Грета Шрёдер, Георг Г. Шнель, Рут Ландшорфф, Густав Ботц, Александр Гранах, Джон Готтовт, Макс Немец, Вольфган Хайнц, Альберт Венор

Описание: Молодой клерк Хуттер из Бремена первой трети XIX века отправляется за тридевять земель, в карпатские леса, к инфернальному графу Орлоку, владельцу замка, решившему перебраться в крупный город. Гость выясняет, что Орлок, известный и как Носферату, — вампир, и от его заражающего укуса Хуттера спасает лишь супруга Нина, сверхъестественно сильно влюблённая в скромного и безвольного служащего конторы по продаже недвижимого имущества. Именно она понимает, какое зло несёт в себе мрачный граф.

Доп. информация:

Качество видео: BDRip | zkv1/1080p Blu-Ray
Формат видео: AVI

Видео: 640x480 (1.33:1), 23.976 fps, XviD build 73 ~1731 kbps avg, 0.23 bit/pixel
Аудио: 48 kHz, AC3 Dolby Digital, 3/2 (L,C,R,l,r) + LFE ch, ~448 kbps
Формат субтитров: softsub (SRT)[/font-serif1]
Общее
Полное имя : C:\Documents and Settings\Пользователь\Рабочий стол\Торрентс.ру\Nosferatu.eine.Symphonie.des.Grauens.1922.BDRip.Subs_by_LBS\Nosferatu.eine.Symphonie.des.Grauens.1922.BDRip_by_LBS.avi
Формат : AVI
Формат/Информация : Audio Video Interleave
Размер файла : 1,46 Гбайт
Продолжительность : 1 ч. 35 м.
Общий поток : 2189 Кбит/сек
Режиссёр : Last Boy Scout
Программа кодирования : VirtualDubMod 1.5.10.3 | www.virtualdub-fr.org || (build 2550/release)
Правообладатель : rutracker.org 18.01.2014
Примечание : BDRip Sub

[/br]Видео
Идентификатор : 0
Формат : MPEG-4 Visual
Профиль формата : Advanced Simple@L5
Параметр BVOP формата : 1
Параметр QPel формата : Нет
Параметр GMC формата : Без точки перехода
Параметр матрицы формата : Выборочная
Идентификатор кодека : XVID
Идентификатор кодека/Подсказка : XviD
Продолжительность : 1 ч. 35 м.
Битрейт : 1732 Кбит/сек
Ширина : 640 пикселей
Высота : 480 пикселей
Соотношение сторон : 4:3
Частота кадров : 23,976 кадра/сек
Цветовое пространство : YUV
Субдискретизация насыщенности : 4:2:0
Битовая глубина : 8 бит
Тип развёртки : Прогрессивная
Метод сжатия : С потерями
Бит/(Пиксели*Кадры) : 0.235
Размер потока : 1,15 Гбайт (79%)
Библиотека кодирования : XviD 73

[/br]Аудио
Идентификатор : 1
Формат : AC-3
Формат/Информация : Audio Coding 3
Расширение режима : CM (complete main)
Параметр Endianness формата : Big
Идентификатор кодека : 2000
Продолжительность : 1 ч. 35 м.
Вид битрейта : Постоянный
Битрейт : 448 Кбит/сек
Каналы : 6 каналов
Расположение каналов : Front: L C R, Side: L R, LFE
Частота : 48,0 КГц
Битовая глубина : 16 бит
Метод сжатия : С потерями
Размер потока : 305 Мбайт (20%)
Выравнивание : Разделение по промежуткам
Продолжительность промежутка : 42 мс. (1,00 видеокадр)
Время предзагрузки промежутка : 500 мс.
31
00:04:42,282 --> 00:04:47,911
Жил в Висборге человек по имени Хуттер
со своей молодой женой Элен.

[/br]32
00:06:22,924 --> 00:06:31,390
"Зачем ты убил их...
эти прекрасные цветы?"

[/br]33
00:06:49,909 --> 00:06:57,749
"Не надо так спешить, мой юный друг!
Никому не уйти от своей судьбы."

[/br]34
00:07:06,217 --> 00:07:10,429
В городе жил также
агент по продаже домов Кнок,

[/br]35
00:07:10,555 --> 00:07:13,598
о котором ходили разные слухи.

[/br]36
00:07:13,724 --> 00:07:17,477
Достоверно было известно только то,
что он хорошо платил своим людям.

[/br]37
00:08:19,707 --> 00:08:24,794
"Его милость граф Орлок...
из Трансильвании...

[/br]38
00:08:24,921 --> 00:08:30,383
желает купить домик...
в нашем маленьком городе..."

[/br]39
00:08:32,637 --> 00:08:38,350
"Вы могли бы заработать
кругленькую сумму..."

[/br]40
00:08:41,729 --> 00:08:50,529
"...правда, это будет стоить вам
некоторых усилий...

[/br]41
00:08:50,655 --> 00:08:54,157
немного пота и возможно...
немного крови..."

[/br]42
00:09:42,039 --> 00:09:45,917
"Он хочет красивый,
пустой дом..."

[/br]43
00:09:58,180 --> 00:10:02,517
"Вон тот дом... прямо напротив вашего.

[/br]44
00:10:02,643 --> 00:10:04,477
Предложите ему его!"

[/br]45
00:10:06,856 --> 00:10:11,568
"Поезжайте быстрее, мой юный друг,

[/br]46
00:10:11,694 --> 00:10:15,780
счастливого пути в страну призраков."

[/br]47
00:10:33,883 --> 00:10:37,135
"Я уезжаю далеко-далеко,

[/br]48
00:10:37,261 --> 00:10:41,723
в страну воров и призраков."

[/br]49
00:12:14,233 --> 00:12:24,200
И Хуттер вверил заботу
об опечаленной жене своему другу,

[/br]50
00:12:24,326 --> 00:12:33,793
богатому судовладельцу Хардингу
и его сестре.

[/br]51
00:12:54,190 --> 00:12:56,191
"Не беспокойся."

piratbit.org



Скачать Носферату, симфония ужаса через торрент http://pic1.kartinco.top/images/10/wrrgf.jpg Скачать фильм Носферату, симфония ужаса через торрент бесплантно в хорошем качестве Описание: Молодой клерк Хуттер из Бремена первой трети XIX века отправляется за тридевять земель, в карпатские леса, к инфернальному графу ... 10 10 6
Торрент: Зарегистрирован [2016-09-01 10:50] · скачан: 40 раз
Статус: √ проверено
Размер: 1.46 GB
Как cкачать? Как скачать Носферату, симфония ужаса через торрент | qTorrent

% Раздел Тема Автор DL S | L
Фильмы без перевода [ 27.55 GB ] Носферату симфония ужаса / Nosferatu eine Symphonie des Grauens [1922 BDRemux / Sub] shuller Скачать
1 | 0

28-11-2019 20:33  

Отключить всю рекламу на сайте

    Дорогой пользователь! Огромная просьба, поблагодарите релизера, оцените раздачу и оставьте свои комментарий, если Вы скачали Носферату, симфония ужаса через торрент бесплатно! Внесите свою лепту в развитие PiratBit!
    Комментировать посты могут только пользователи прошедшие не сложную регистрацию
    Показать сообщения:    

    Носферату, симфония ужаса через торрент
    Скачать бесплатно Носферату, симфония ужаса
    Носферату, симфония ужаса скачать торрент
    Носферату, симфония ужаса смотреть онлайн
    Cкачать фильм Носферату, симфония ужаса бесплатно
    Носферату, симфония ужаса скачать торрент в хорошем качестве
    Носферату, симфония ужаса смотреть онлайн бесплатно в хорошем качестве


    Вы не можете начинать темы
    Вы не можете отвечать на сообщения
    Вы не можете редактировать свои сообщения
    Вы не можете удалять свои сообщения
    Вы не можете голосовать в опросах
    Вы не можете прикреплять файлы к сообщениям
    Вы можете скачивать файлы