1 сезон

3 сезон

iTunes

1

iTunes

DUB Netflix

iTunes

13

1 сезон

RePack

30

Deluxe

pack

Легкие деньги

ВАЖНО

ИГРА 18+

pack

RePack

MK11

RePack

jed

RePack

fifa19

RePack

RDR2

RePack

NEED FOR SPEED™ PAYBACK

4 сезон

9 сезон

Бесстыжие 9 сезон

Все сериалы

все сериалы на PB.wtf

RePack

FAR CRY 5

Anonymous, доброй ночи, мы не успеваем до 1 числа собрать деньги на оплату серверов, помогите нам пожалуйста в это трудное время. В качестве благодарности мы отключим Вам всю рекламу на сайте (укажите свой ник в строку Ваше имя)!

×
  
Magnet ссылка

Капитан Фантастик / Captain Fantastic (Мэтт Росс ) [2016, драма, мелодрама, комедия, WEB-DLRip] MVO [iTunes] piratbit.org

Капитан Фантастик через торрент piratbit.org

Размер: 2.05 GB | Добавлен: 4 года 9 мес. назад | Торрент скачан:1093 раза
Скачать  

02-09-2016 05:20 Капитан Фантастик Скачать торрент  

Капитан Фантастик / Captain Fantastic

Год выпуска: 2016
Страна: США
Жанр: драма, мелодрама, комедия

Продолжительность: 01:58:54
Перевод: Профессиональный (многоголосый, закадровый) [iTunes]
Режиссер: Мэтт Росс
В ролях: Вигго Мортенсен (Ben), Джордж МакКэй (Bo), Саманта Ислер (Kielyr), Анналиса Бассо (Vespyr), Николас Хэмилтон (Rellian), Шри Крукс (Zaja), Чарли Шотуэлл (Nai), Трин Миллер (Leslie), Кэтрин Хан (Harper), Стив Зан (Dave), Элайджа Стивенсон (Justin), Тедди Ван Ии (Jackson)
Описание:
Они говорят на нескольких языках, знают квантовую физику и разбираются в философии. Они умеют охотиться и обращаться с оружием. Они живут в лесу в полной гармонии с природой. Лишь стечение обстоятельств заставляет их покинуть родной дом и отправиться в большой город. Что будет, когда они столкнутся с цивилизацией, когда на них обрушится первая любовь и мир гаджетов и социальных сетей?
Рейтинг:

MPAA: R - Лицам до 17 лет обязательно присутствие взрослого
Качество: WEB-DLRip
Формат: AVI
Видео: XviD, 720x304 (2.35:1), 2074 kbps, 24 fps, 0,395 bpp
Аудио: AC3 / 5.1 / 48 kHz / 384 kbps /

General
Complete name Kapitan.Fantastik.2016.P.WEB-DLRip.2100MB.avi
Format : AVI
Format/Info : Audio Video Interleave
Format profile : OpenDML
File size : 2.05 GiB
Duration : 1 h 58 min
Overall bit rate : 2 471 kb/s
Writing application : VirtualDubMod 1.5.10.2 (build 2540/release)
Writing library : VirtualDubMod build 2540/release

Video
ID : 0
Format : MPEG-4 Visual
Format profile : Advanced Simple@L5
Format settings, BVOP : 2
Format settings, QPel : No
Format settings, GMC : No warppoints
Format settings, Matrix : Default (MPEG)
Codec ID : XVID
Codec ID/Hint : XviD
Duration : 1 h 58 min
Bit rate : 2 075 kb/s
Width : 720 pixels
Height : 304 pixels
Display aspect ratio : 2.35:1
Frame rate : 24.000 FPS
Color space : YUV
Chroma subsampling : 4:2:0
Bit depth : 8 bits
Scan type : Progressive
Compression mode : Lossy
Bits/(Pixel*Frame) : 0.395
Stream size : 1.72 GiB (84%)
Writing library : XviD 1.2.1 (UTC 2008-12-04)

Audio
ID : 1
Format : AC-3
Format/Info : Audio Coding 3
Mode extension : CM (complete main)
Format settings, Endianness : Big
Codec ID : 2000
Duration : 1 h 58 min
Bit rate mode : Constant
Bit rate : 384 kb/s
Channel(s) : 6 channels
Channel positions : Front: L C R, Side: L R, LFE
Sampling rate : 48.0 kHz
Frame rate : 31.250 FPS (1536 spf)
Compression mode : Lossy
Stream size : 327 MiB (16%)
Alignment : Split accross interleaves
Interleave, duration : 42 ms (1.00 video frame)
Interleave, preload duration : 500 ms
Скриншоты:
piratbit.org



Скачать Капитан Фантастик через торрент http://i6.imageban.ru/out/2016/09/02/0d8061b54ccb879d96b69b50d1b93d54.jpg Скачать фильм Капитан Фантастик через торрент бесплантно в хорошем качестве Описание: Они говорят на нескольких языках, знают квантовую физику и разбираются в философии. Они умеют охотиться и обращаться с оружием. ... 8.5 10 19
Info! Золотая раздача, скачанное не засчитывается.
Торрент: Зарегистрирован [2016-09-02 05:20] · скачан: 1 093 раз
Статус: √ проверено
Размер: 2.05 GB
Как cкачать? Как скачать Капитан Фантастик через торрент | UTorrent

% Раздел Тема Автор DL S | L
Фильмы 2016 [DVDrip, WEB-DLRip, HDrip] (DUB, MVO) [ 1.46 GB ] Капитан Фантастик / Captain Fantastic [2016 BDRip-AVC] MVO potroks Скачать
1 | 0
Фильмы 2016 [DVDrip, WEB-DLRip, HDrip] (DUB, MVO) [ 1.41 GB ] Капитан Фантастик / Captain Fantastic [2016 BDRip] MVO Twi7ter Скачать
1 | 0
Фильмы (Blu-ray, BD-Remux, HDDVD) [ 25.24 GB ] Капитан Фантастик / Captain Fantastic [2016 BD Remux] многоголосый -Lexx- Скачать
1 | 0
R.G. Resident & PiratVoice - Фильмы, Видео [ 3.06 GB ] Капитан Фантастик / Captain Fantastic [2016 BDRip-AVC] MVO R.G.Resident schultz Скачать
1 | 0
Фильмы 2016 [DVDrip, WEB-DLRip, HDrip] (DUB, MVO) [ 1.45 GB ] Капитан Фантастик / Captain Fantastic [2016 HDRip] MVO bober100 Скачать
1 | 0
Фильмы (WEB-DL 720p, 1080p) [ 4.09 GB ] Капитан Фантастик / Captain Fantastic [2016 WEB-DL 1080p] MVO smaster Скачать
1 | 0
Фильмы (WEB-DL 720p, 1080p) [ 3.67 GB ] Капитан Фантастик / Captain Fantastic [2016 WEB-DL 720p] MVO smaster Скачать
1 | 0

28-11-2019 20:33  

Отключить всю рекламу на сайте

02-09-2016 06:48 Капитан Фантастик Скачать торрент  

Рейтинг крутоват надо посмотретьpiratbit.org



02-09-2016 06:57 Капитан Фантастик Скачать торрент  

Название как у порнофильма.piratbit.org



02-09-2016 13:48 Капитан Фантастик Скачать торрент  

Дубляж ожидается?piratbit.org



02-09-2016 16:48 Капитан Фантастик Скачать торрент  

Когда читал про описание фильма, подумал что фильм про семью Хогбенов, кто не в курсе вам к Шекли. Прикольный был бы фильм если бы про них.piratbit.org



02-09-2016 19:55 Капитан Фантастик Скачать торрент  

Фильм бредовый! не о чем.piratbit.org



02-09-2016 20:23 Капитан Фантастик Скачать торрент  

Murokki писал(а):

Когда читал про описание фильма, подумал что фильм про семью Хогбенов, кто не в курсе вам к Шекли. Прикольный был бы фильм если бы про них.

в курсе, прикольный цикл произведений, про малыша)))piratbit.org



03-09-2016 06:03 Капитан Фантастик Скачать торрент  

Фильм не плох но в некоторых местах туповат и рейтинг явно завышен 6 голых мужиков из 10piratbit.org



03-09-2016 15:11 Капитан Фантастик Скачать торрент  

Дизлайк фильму! Хосту респект!piratbit.org



03-10-2016 16:44 Капитан Фантастик Скачать торрент  

Evgeniy 23 писал(а):

Название как у порнофильма.

piratbit.org



    Дорогой пользователь! Огромная просьба, поблагодарите релизера, оцените раздачу и оставьте свои комментарий, если Вы скачали Капитан Фантастик через торрент бесплатно! Внесите свою лепту в развитие PiratBit!
    Комментировать посты могут только пользователи прошедшие не сложную регистрацию
    Показать сообщения:    

    Капитан Фантастик через торрент
    Скачать бесплатно Капитан Фантастик
    Капитан Фантастик скачать торрент
    Капитан Фантастик смотреть онлайн
    Cкачать фильм Капитан Фантастик бесплатно
    Капитан Фантастик скачать торрент в хорошем качестве
    Капитан Фантастик смотреть онлайн бесплатно в хорошем качестве


    Вы не можете начинать темы
    Вы не можете отвечать на сообщения
    Вы не можете редактировать свои сообщения
    Вы не можете удалять свои сообщения
    Вы не можете голосовать в опросах
    Вы не можете прикреплять файлы к сообщениям
    Вы можете скачивать файлы