1 сезон

3 сезон

iTunes

1

iTunes

DUB Netflix

iTunes

13

1 сезон

RePack

30

Deluxe

pack

Легкие деньги

ВАЖНО

ИГРА 18+

pack

RePack

MK11

RePack

jed

RePack

fifa19

RePack

RDR2

RePack

NEED FOR SPEED™ PAYBACK

4 сезон

9 сезон

Бесстыжие 9 сезон

Все сериалы

все сериалы на PB.wtf

RePack

FAR CRY 5

Anonymous, доброй ночи, мы не успеваем до 1 числа собрать деньги на оплату серверов, помогите нам пожалуйста в это трудное время. В качестве благодарности мы отключим Вам всю рекламу на сайте (укажите свой ник в строку Ваше имя)!

×
  
Magnet ссылка

Заклятие 2 / The Conjuring 2 (Джеймс Ван) [2016 г., ужасы, триллер, детектив, ВDRip-AVC] Dub / iTunes piratbit.org

Заклятие 2 через торрент piratbit.org

Раздают: 1 [ 0 KB/s ]
Размер: 1.46 GB | Добавлен: 4 года 9 мес. назад | Торрент скачан:934 раза
Скачать  

02-09-2016 17:17 Заклятие 2 Скачать торрент  


Заклятие 2 / The Conjuring 2
«Новая подлинная история»


Год выпуска: 2016
Страна: США, Канада
Жанр: ужасы, триллер, детектив
Продолжительность: 02:13:21
Перевод: Профессиональный (полное дублирование) [iTunes]

Режиссер: Джеймс Ван

В ролях: Патрик Уилсон, Вера Фармига, Мэдисон Вульф, Фрэнсис О'Коннор, Лорен Эспозито,Саймон МакБерни, Мария Дойл Кеннеди, Саймон Делани

Описание: Супругов занесло в город Энфильд. На этот раз экстрасенсам довелось столкнуться с могущественным демоном, претендующим на звание владыки здешних мест. Скептически настроенные горожане начали подозревать друг друга в происшествиях, в их сердцах поселилась вражда и ненависть.
    • Бюджет: $40 000 000
    • Сборы в США: $102 470 008
    • Сборы в мире: + $217 000 000 = $319 470 008
    • Сборы в России: $4 374 031
    • Зрители: Россия 1.21 млн
    • Премьера (мир): 13 мая 2016
    • Премьера (РФ): 15 июня 2016



Качество: BDRip-AVC
Формат: MKV
Видео кодек: AVC (x264)
Аудио кодек: AC3
Видео: 984x410, 23.976 fps, ~1 175 kbps
Аудио: 48.0 KHz, 6 ch, ~384 kbps
Субтитры: Русские (forced) отключаемые


Format : Matroska
Format version : Version 4 / Version 2
File size : 1.46 GiB
Duration : 2h 13mn
Overall bit rate : 1 560 Kbps
Movie name : Заклятие 2 / The Conjuring 2 (2016) :: AFM ::
Encoded date : UTC 2016-08-31 12:55:21
Writing application : mkvmerge v8.3.0 ('Over the Horizon') 32bit
Writing library : libebml v1.3.1 + libmatroska v1.4.2

Video
ID : 1
Format : AVC
Format/Info : Advanced Video Codec
Format profile : High@L4.1
Format settings, CABAC : Yes
Format settings, ReFrames : 10 frames
Codec ID : V_MPEG4/ISO/AVC
Duration : 2h 13mn
Bit rate : 1 175 Kbps
Width : 984 pixels
Height : 410 pixels
Display aspect ratio : 2.40:1
Frame rate mode : Constant
Frame rate : 23.976 fps
Color space : YUV
Chroma subsampling : 4:2:0
Bit depth : 8 bits
Scan type : Progressive
Bits/(Pixel*Frame) : 0.121
Stream size : 1.07 GiB (73%)
Title : BDRip by AFM [RuTracker.org]
Writing library : x264 core 148 r2705+54 9f484c1 t_mod_Custom [8-bit@all X86_64]
Encoding settings : cabac=1 / ref=10 / deblock=1:-2:-1 / analyse=0x3:0x113 / me=umh / subme=10 / psy=1 / fade_compensate=0.00 / psy_rd=1.00:0.00 / mixed_ref=1 / me_range=32 / chroma_me=1 / trellis=2 / 8x8dct=1 / cqm=0 / deadzone=21,11 / fast_pskip=0 / chroma_qp_offset=-2 / threads=6 / lookahead_threads=1 / sliced_threads=0 / nr=0 / decimate=0 / interlaced=0 / bluray_compat=0 / constrained_intra=0 / fgo=0 / bframes=14 / b_pyramid=2 / b_adapt=2 / b_bias=0 / direct=3 / weightb=1 / open_gop=0 / weightp=2 / keyint=250 / keyint_min=23 / scenecut=40 / intra_refresh=0 / rc_lookahead=40 / rc=2pass / mbtree=0 / bitrate=1175 / ratetol=1.0 / qcomp=0.65 / qpmin=0:0:0 / qpmax=69:69:69 / qpstep=4 / cplxblur=20.0 / qblur=0.5 / vbv_maxrate=50000 / vbv_bufsize=62500 / nal_hrd=none / filler=0 / ip_ratio=1.33 / pb_ratio=1.29 / aq=1:0.90 / aq-sensitivity=10.00 / aq-factor=1.00:1.00:1.00 / aq2=0 / aq3=0
Language : English
Default : Yes
Forced : No

Audio
ID : 2
Format : AC-3
Format/Info : Audio Coding 3
Mode extension : CM (complete main)
Format settings, Endianness : Big
Codec ID : A_AC3
Duration : 2h 13mn
Bit rate mode : Constant
Bit rate : 384 Kbps
Channel(s) : 6 channels
Channel positions : Front: L C R, Side: L R, LFE
Sampling rate : 48.0 KHz
Bit depth : 16 bits
Compression mode : Lossy
Stream size : 368 MiB (25%)
Title : Dub, AC3 5.1 ~384 kbps
Language : Russian
Default : Yes
Forced : No

Text
ID : 3
Format : UTF-8
Codec ID : S_TEXT/UTF8
Codec ID/Info : UTF-8 Plain Text
Title : forced
Language : Russian
Default : Yes
Forced : No

Menu
00:00:00.000 : en:Chapter 01
00:08:24.671 : en:Chapter 02
00:18:40.703 : en:Chapter 03
00:28:34.212 : en:Chapter 04
00:40:01.399 : en:Chapter 05
00:48:46.841 : en:Chapter 06
01:02:14.314 : en:Chapter 07
01:09:29.665 : en:Chapter 08
01:21:55.869 : en:Chapter 09
01:29:26.486 : en:Chapter 10
01:38:53.469 : en:Chapter 11
01:48:15.364 : en:Chapter 12
02:03:10.508 : en:Chapter 13
02:07:36.816 : en:Chapter 14



piratbit.org



Скачать Заклятие 2 через торрент https://pic1.kartinco.top/images/10/7fwjl.jpg Скачать фильм Заклятие 2 через торрент бесплантно в хорошем качестве Описание: Супругов занесло в город Энфильд. На этот раз экстрасенсам довелось столкнуться с могущественным демоном, претендующим на звание ... 9.6 10 16
Торрент: Зарегистрирован [2016-09-02 17:17] · скачан: 934 раз
Статус: √ проверено
Размер: 1.46 GB
Как cкачать? Как скачать Заклятие 2 через торрент | UTorrent

% Раздел Тема Автор DL S | L
Фильмы [HD 720p, 1080p] (Хороший звук DUB, MVO) [ 7.93 GB ] Заклятие 2 / The Conjuring 2 [2016 BDRip 720p] smaster Скачать
1 | 0

28-11-2019 20:33  

Отключить всю рекламу на сайте

02-09-2016 17:56 Заклятие 2 Скачать торрент  

я так понял, самое страшное в фильме, это прикус девочки на последнем скрине))piratbit.org



02-09-2016 18:20 Заклятие 2 Скачать торрент  

saidfatal писал(а):

я так понял, самое страшное в фильме, это прикус девочки на последнем скрине))

Не смотрел, не могу точно сказатьpiratbit.org



02-09-2016 20:51 Заклятие 2 Скачать торрент  

saidfatal писал(а):

я так понял, самое страшное в фильме, это прикус девочки на последнем скрине))

+100 ))))
тоже самое подумал ))piratbit.org



03-09-2016 15:49 Заклятие 2 Скачать торрент  

Хороший фильм!piratbit.org



03-09-2016 20:27 Заклятие 2 Скачать торрент  

Спасибо за фильм, посмотрим ... victorypiratbit.org



11-09-2016 06:53 Заклятие 2 Скачать торрент  

В сравнении с первой частью,фильм не такой страшный,но несколько раз на измену высаживал))piratbit.org



13-09-2016 16:03 Заклятие 2 Скачать торрент  

спасибо,посмотрим )piratbit.org



18-09-2016 04:17 Заклятие 2 Скачать торрент  

мне понравился!piratbit.org



    Дорогой пользователь! Огромная просьба, поблагодарите релизера, оцените раздачу и оставьте свои комментарий, если Вы скачали Заклятие 2 через торрент бесплатно! Внесите свою лепту в развитие PiratBit!
    Комментировать посты могут только пользователи прошедшие не сложную регистрацию
    Показать сообщения:    

    Заклятие 2 через торрент
    Скачать бесплатно Заклятие 2
    Заклятие 2 скачать торрент
    Заклятие 2 смотреть онлайн
    Cкачать фильм Заклятие 2 бесплатно
    Заклятие 2 скачать торрент в хорошем качестве
    Заклятие 2 смотреть онлайн бесплатно в хорошем качестве


    Вы не можете начинать темы
    Вы не можете отвечать на сообщения
    Вы не можете редактировать свои сообщения
    Вы не можете удалять свои сообщения
    Вы не можете голосовать в опросах
    Вы не можете прикреплять файлы к сообщениям
    Вы можете скачивать файлы