1 сезон

3 сезон

iTunes

1

iTunes

DUB Netflix

iTunes

13

1 сезон

RePack

30

Deluxe

pack

Легкие деньги

ВАЖНО

ИГРА 18+

pack

RePack

MK11

RePack

jed

RePack

fifa19

RePack

RDR2

RePack

NEED FOR SPEED™ PAYBACK

4 сезон

9 сезон

Бесстыжие 9 сезон

Все сериалы

все сериалы на PB.wtf

RePack

FAR CRY 5

Anonymous, доброй ночи, мы не успеваем до 1 числа собрать деньги на оплату серверов, помогите нам пожалуйста в это трудное время. В качестве благодарности мы отключим Вам всю рекламу на сайте (укажите свой ник в строку Ваше имя)!

×
  
Magnet ссылка

Первый мститель: Противостояние / Captain America: Civil War (Энтони Руссо , Джо Руссо ) [2016, фантастика, боевик, приключения, BDRip-AVC от _denis_100 / NNNB] FocusStudio piratbit.org

Первый мститель: Противостояние через торрент piratbit.org

Размер: 2.91 GB | Добавлен: 4 года 9 мес. назад | Торрент скачан:1790 раз
Скачать  

03-09-2016 08:09 Первый мститель: Противостояние Скачать торрент  

Первый мститель: Противостояние / Captain America: Civil War
«Разделившись, мы падём»


Год выпуска: 2016
Страна: США, Германия
Жанр: фантастика, боевик, приключения
Продолжительность: 02:27:41
Перевод: Профессиональный многоголосый
Субтитры: русские (Forced), русские (Full), английские (Full), английские (SDH)
Режиссер: Энтони Руссо , Джо Руссо
В ролях: Крис Эванс , Роберт Дауни мл. , Скарлетт Йоханссон , Себастьян Стэн , Энтони Маки , Дон Чидл , Джереми Реннер , Чедвик Боузман , Пол Беттани , Элизабет Олсен , Пол Радд , Эмили ВанКэмп
Описание:
Мстители под руководством Капитана Америки оказываются участниками разрушительного инцидента, имеющего международный масштаб. Эти события заставляют правительство задуматься над тем, чтобы начать регулировать действия всех людей с особыми способностями, введя «Акт о регистрации супергероев», вынуждая их подчиняться ООН.

PG-13 - Детям до 13 лет просмотр не желателен
Качество: BDRip-AVC
Контейнер (Расширение): MKV
Видео: 960x402, 1922 Кбит/сек, 23,976 кадр/сек, 0,208 Бит/[Пиксели*Кадры]
Аудио №1: русский / AC3 / 5.1 / 48 kHz / 448 kbps / |Профессиональный многоголосый, FocusStudio|
Аудио №2: английский / AC3 / 5.1 / 48 kHz / 448 kbps /
Навигация по главам(Чаптеры): естьАвтор рипа: Сообщество: Звуковая дорожка FocusStudio и субтитры отдельно:
Format : Matroska
Format version : Version 2
File size : 2.91 GiB
Duration : 2 h 27 min
Overall bit rate : 2 820 kb/s
Movie name : Captain America: Civil War.(2016).BDRip-AVC.[denis100]
Encoded date : UTC 2016-09-03 06:38:49
Writing application : mkvmerge v5.8.0 ('No Sleep / Pillow') built on Sep 2 2012 15:37:04
Writing library : libebml v1.2.3 + libmatroska v1.3.0

Video
ID : 1
Format : AVC
Format/Info : Advanced Video Codec
Format profile : High@L4.1
Format settings, CABAC : Yes
Format settings, ReFrames : 11 frames
Codec ID : V_MPEG4/ISO/AVC
Duration : 2 h 27 min
Bit rate : 1 922 kb/s
Width : 960 pixels
Height : 402 pixels
Display aspect ratio : 2.40:1
Frame rate mode : Constant
Frame rate : 23.976 (24000/1001) FPS
Color space : YUV
Chroma subsampling : 4:2:0
Bit depth : 8 bits
Scan type : Progressive
Bits/(Pixel*Frame) : 0.208
Stream size : 1.93 GiB (66%)
Title : Captain America: Civil War.(2016).BDRip-AVC.[denis100]
Writing library : x264 core 148 r2705 3f5ed56
Encoding settings : cabac=1 / ref=11 / deblock=1:-3:-3 / analyse=0x3:0x133 / me=umh / subme=11 / psy=1 / psy_rd=1.00:0.10 / mixed_ref=1 / me_range=48 / chroma_me=1 / trellis=2 / 8x8dct=1 / cqm=0 / deadzone=21,11 / fast_pskip=0 / chroma_qp_offset=-3 / threads=6 / lookahead_threads=1 / sliced_threads=0 / nr=0 / decimate=1 / interlaced=0 / bluray_compat=0 / constrained_intra=0 / bframes=14 / b_pyramid=2 / b_adapt=2 / b_bias=0 / direct=3 / weightb=1 / open_gop=0 / weightp=2 / keyint=240 / keyint_min=23 / scenecut=40 / intra_refresh=0 / rc=2pass / mbtree=0 / bitrate=1922 / ratetol=1.0 / qcomp=0.60 / qpmin=0 / qpmax=69 / qpstep=4 / cplxblur=20.0 / qblur=0.5 / ip_ratio=1.40 / pb_ratio=1.30 / aq=2:0.80
Language : English
Default : Yes
Forced : No

Audio #1
ID : 2
Format : AC-3
Format/Info : Audio Coding 3
Mode extension : CM (complete main)
Format settings, Endianness : Big
Codec ID : A_AC3
Duration : 2 h 27 min
Bit rate mode : Constant
Bit rate : 448 kb/s
Channel(s) : 6 channels
Channel positions : Front: L C R, Side: L R, LFE
Sampling rate : 48.0 kHz
Frame rate : 31.250 FPS (1536 spf)
Compression mode : Lossy
Stream size : 473 MiB (16%)
Title : MVO, FocusStudio
Language : Russian
Default : Yes
Forced : No

Audio #2
ID : 3
Format : AC-3
Format/Info : Audio Coding 3
Mode extension : CM (complete main)
Format settings, Endianness : Big
Codec ID : A_AC3
Duration : 2 h 27 min
Bit rate mode : Constant
Bit rate : 448 kb/s
Channel(s) : 6 channels
Channel positions : Front: L C R, Side: L R, LFE
Sampling rate : 48.0 kHz
Frame rate : 31.250 FPS (1536 spf)
Compression mode : Lossy
Stream size : 473 MiB (16%)
Language : English
Default : No
Forced : No

Text #1
ID : 4
Format : UTF-8
Codec ID : S_TEXT/UTF8
Codec ID/Info : UTF-8 Plain Text
Title : Forced
Language : Russian
Default : No
Forced : No

Text #2
ID : 5
Format : UTF-8
Codec ID : S_TEXT/UTF8
Codec ID/Info : UTF-8 Plain Text
Title : Full
Language : Russian
Default : No
Forced : No

Text #3
ID : 6
Format : UTF-8
Codec ID : S_TEXT/UTF8
Codec ID/Info : UTF-8 Plain Text
Title : Full
Language : English
Default : No
Forced : No

Text #4
ID : 7
Format : UTF-8
Codec ID : S_TEXT/UTF8
Codec ID/Info : UTF-8 Plain Text
Title : SDH
Language : English
Default : No
Forced : No

Menu
00:00:00.000 : en:Chapter 1
00:09:01.958 : en:Chapter 2
00:13:04.993 : en:Chapter 3
00:21:03.345 : en:Chapter 4
00:27:53.380 : en:Chapter 5
00:31:57.290 : en:Chapter 6
00:35:08.398 : en:Chapter 7
00:42:58.451 : en:Chapter 8
00:52:04.621 : en:Chapter 9
01:05:39.102 : en:Chapter 10
01:16:41.639 : en:Chapter 11
01:22:28.777 : en:Chapter 12
01:29:29.489 : en:Chapter 13
01:34:09.769 : en:Chapter 14
01:45:38.582 : en:Chapter 15
01:55:54.322 : en:Chapter 16
02:02:35.056 : en:Chapter 17
02:12:14.176 : en:Chapter 18
02:18:29.384 : en:Chapter 19
x264 [info]: frame I:1774 Avg QP:13.15 size: 66796
x264 [info]: frame P:56806 Avg QP:16.77 size: 19106
x264 [info]: frame B:153894 Avg QP:18.69 size: 6013
x264 [info]: consecutive B-frames: 7.0% 5.3% 10.7% 17.3% 17.4% 29.7% 6.0% 2.1% 1.8% 0.8% 0.6% 0.3% 0.3% 0.3% 0.2%
piratbit.org



Скачать Первый мститель: Противостояние через торрент http://i6.imageban.ru/out/2016/09/03/33998e6b2918c902bedfbf22c5157bb5.png Скачать фильм Первый мститель: Противостояние через торрент бесплантно в хорошем качестве Описание:Мстители под руководством Капитана Америки оказываются участниками разрушительного инцидента, имеющего международный масштаб. Эти ... 9.9 10 39
Info! Золотая раздача, скачанное не засчитывается.
Торрент: Зарегистрирован [2016-09-03 08:09] · скачан: 1 790 раз
Статус: √ проверено
Размер: 2.91 GB
Как cкачать? Как скачать Первый мститель: Противостояние через торрент | UTorrent

% Раздел Тема Автор DL S | L
R.G. Resident & PiratVoice - Фильмы, Видео [ 2.99 GB ] Первый мститель: Противостояние / Captain America: Civil War [2016 BDRip-AVC MVO FocusStudio] R.G.Resident schultz Скачать
1 | 0

28-11-2019 20:33  

Отключить всю рекламу на сайте

    Дорогой пользователь! Огромная просьба, поблагодарите релизера, оцените раздачу и оставьте свои комментарий, если Вы скачали Первый мститель: Противостояние через торрент бесплатно! Внесите свою лепту в развитие PiratBit!
    Комментировать посты могут только пользователи прошедшие не сложную регистрацию
    Показать сообщения:    

    Первый мститель: Противостояние через торрент
    Скачать бесплатно Первый мститель: Противостояние
    Первый мститель: Противостояние скачать торрент
    Первый мститель: Противостояние смотреть онлайн
    Cкачать фильм Первый мститель: Противостояние бесплатно
    Первый мститель: Противостояние скачать торрент в хорошем качестве
    Первый мститель: Противостояние смотреть онлайн бесплатно в хорошем качестве


    Вы не можете начинать темы
    Вы не можете отвечать на сообщения
    Вы не можете редактировать свои сообщения
    Вы не можете удалять свои сообщения
    Вы не можете голосовать в опросах
    Вы не можете прикреплять файлы к сообщениям
    Вы можете скачивать файлы