1 сезон

3 сезон

iTunes

1

iTunes

DUB Netflix

iTunes

13

1 сезон

RePack

30

Deluxe

pack

Легкие деньги

ВАЖНО

ИГРА 18+

pack

RePack

MK11

RePack

jed

RePack

fifa19

RePack

RDR2

RePack

NEED FOR SPEED™ PAYBACK

4 сезон

9 сезон

Бесстыжие 9 сезон

Все сериалы

все сериалы на PB.wtf

RePack

FAR CRY 5

Anonymous, доброй ночи, мы не успеваем до 1 числа собрать деньги на оплату серверов, помогите нам пожалуйста в это трудное время. В качестве благодарности мы отключим Вам всю рекламу на сайте (укажите свой ник в строку Ваше имя)!

×
  
Magnet ссылка

Шоколад / Chocolat (Рошди Зем ) [2016, драма, HDRip, Дубляж] iTunes piratbit.org

Шоколад через торрент piratbit.org

Раздают: 1 [ 0 KB/s ]
Размер: 1.45 GB | Добавлен: 4 года 9 мес. назад | Торрент скачан:610 раз
Скачать  

05-09-2016 07:58 Шоколад Скачать торрент  

Шоколад / Chocolat

Год выпуска: 2016
Страна: Франция
Жанр: драма

Продолжительность: 01:59:05
Перевод: Дубляж - [Лицензия / iTunes]
Режиссер: Рошди Зем
В ролях: Омар Си (Rafael Padilla dit Chocolat), Джеймс Тьерре (George Footit dit Footit), Клотильда Эсме (Marie Hecquet), Оливье Гурме (Joseph Oller), Фредерик Пьеро (Théodore Delvaux), Ноэми Львовски (Yvonne Delvaux), Элис де Ланкесэ (Camille), Алекс Дека (Victor), Оливье Рабурден (Firmin Gemier), Тибо де Монталембер (Jules Moy), Элена Субейран (Régina Badet), Ксавье Бовуа (Jacques Potin)
Описание:
Это история первого во Франции чернокожего клоуна, выступавшего в тандеме с белым клоуном, вышедшим было в тираж, а с появлением нового партнера вернувшим себе былую славу. Их номера были чрезвычайно популярны в конце XIX века, но интерес к ним был востребован преимущественно из-за того, что белый клоун издевался над чернокожим.
Рейтинг:

Качество: HDRip
Формат: AVI
Видео: XviD, 720x384 (1.85:1), 1355 kbps, 24 fps, 0,204 bpp
Аудио: AC3 / 5.1 / 48 kHz / 384 kbps /


Код:

General
Complete name                            : C:\Users\ghdf\Desktop\W0k0Lad.2016.D.HDRip.1.46GB.avi
Format                                   : AVI
Format/Info                              : Audio Video Interleave
File size                                : 1.45 GiB
Duration                                 : 1 h 59 min
Overall bit rate                         : 1 749 kb/s
Movie name                               : W0k0Lad.2016.D.HDRip.1.46GB
Writing application                      : VirtualDubMod 1.5.10.2 (build 2540/release)
Original source form/Name                : Movie

Video
ID                                       : 0
Format                                   : MPEG-4 Visual
Format profile                           : Advanced Simple@L5
Format settings, BVOP                    : 2
Format settings, QPel                    : No
Format settings, GMC                     : No warppoints
Format settings, Matrix                  : Default (MPEG)
Codec ID                                 : XVID
Codec ID/Hint                            : XviD
Duration                                 : 1 h 59 min
Bit rate                                 : 1 356 kb/s
Width                                    : 720 pixels
Height                                   : 384 pixels
Display aspect ratio                     : 1.85:1
Frame rate                               : 24.000 FPS
Color space                              : YUV
Chroma subsampling                       : 4:2:0
Bit depth                                : 8 bits
Scan type                                : Progressive
Compression mode                         : Lossy
Bits/(Pixel*Frame)                       : 0.204
Stream size                              : 1.13 GiB (78%)
Writing library                          : XviD 1.2.1 (UTC 2008-12-04)

Audio
ID                                       : 1
Format                                   : AC-3
Format/Info                              : Audio Coding 3
Mode extension                           : CM (complete main)
Format settings, Endianness              : Big
Codec ID                                 : 2000
Duration                                 : 1 h 59 min
Bit rate mode                            : Constant
Bit rate                                 : 384 kb/s
Channel(s)                               : 6 channels
Channel positions                        : Front: L C R, Side: L R, LFE
Sampling rate                            : 48.0 kHz
Frame rate                               : 31.250 FPS (1536 spf)
Compression mode                         : Lossy
Stream size                              : 327 MiB (22%)
Alignment                                : Split accross interleaves
Interleave, duration                     : 42  ms (1.00 video frame)
Interleave, preload duration             : 500  ms

скриншот  скриншот  скриншот  скриншот  скриншот  скриншот  
piratbit.org



Скачать Шоколад через торрент http://i82.fastpic.ru/big/2016/0905/ea/6ced51f34cb4e801bc57a46a684322ea.jpg Скачать фильм Шоколад через торрент бесплантно в хорошем качестве Описание: Это история первого во Франции чернокожего клоуна, выступавшего в тандеме с белым клоуном, вышедшим было в тираж, а с появлением ... 9 10 24
Info! Золотая раздача, скачанное не засчитывается.
Торрент: Зарегистрирован [2016-09-05 07:58] · скачан: 610 раз
Статус: √ проверено
Размер: 1.45 GB
Как cкачать? Как скачать Шоколад через торрент | UTorrent

% Раздел Тема Автор DL S | L
Фильмы 2019-2020 [DVDrip, WEB-DLRip, HDrip] (DUB, MVO) [ 701 MB ] Рождество в шоколаде / Chocolate Covered Christmas [2020 WEB-DLRip многоголосый закадровый ""] coc900 Скачать
1 | 0
Фильмы 2019-2020 [DVDrip, WEB-DLRip, HDrip] (DUB, MVO) [ 1.37 GB ] Рождество в шоколаде / Chocolate Covered Christmas [2020 Мело WEB-DLRip] MVO bober100 Скачать
2 | 0
Фильмы (WEB-DL 720p, 1080p) [ 3.32 GB ] Рождество в шоколаде / Chocolate Covered Christmas [2020 Мело WEB-DL 1080p] MVO bober100 Скачать
2 | 0
Фильмы 2016 [DVDrip, WEB-DLRip, HDrip] (DUB, MVO) [ 2.17 GB ] Шоколад / Chocolat [2016 HDRip ""] coc900 Скачать
1 | 0
Фильмы [HD 720p, 1080p] (Хороший звук DUB, MVO) [ 6.42 GB ] Шоколад / Chocolat [2016 BDRip 720p] smaster Скачать
1 | 0

28-11-2019 20:33  

Отключить всю рекламу на сайте

    Дорогой пользователь! Огромная просьба, поблагодарите релизера, оцените раздачу и оставьте свои комментарий, если Вы скачали Шоколад через торрент бесплатно! Внесите свою лепту в развитие PiratBit!
    Комментировать посты могут только пользователи прошедшие не сложную регистрацию
    Показать сообщения:    

    Шоколад через торрент
    Скачать бесплатно Шоколад
    Шоколад скачать торрент
    Шоколад смотреть онлайн
    Cкачать фильм Шоколад бесплатно
    Шоколад скачать торрент в хорошем качестве
    Шоколад смотреть онлайн бесплатно в хорошем качестве


    Вы не можете начинать темы
    Вы не можете отвечать на сообщения
    Вы не можете редактировать свои сообщения
    Вы не можете удалять свои сообщения
    Вы не можете голосовать в опросах
    Вы не можете прикреплять файлы к сообщениям
    Вы можете скачивать файлы