Лицензия

MVO

1

1 сезон

Лицензия

Лицензия

13

MVO

1 сезон

Deluxe Edition

pack

Рекомендуем

30

Repack

ВАЖНО

ВАЖНО

Ghostwire

RePack

jed

RePack

fifa19

RePack

RDR2

RePack

NEED FOR SPEED™ PAYBACK

RePack

Кинопоиск HD

 Острые козырьки 6 сезон

6 сезон

FAR CRY 6

RePack

Лицензия

MVO

1

1 сезон

1 сезон

Лицензия

  

Не та, так эта (Гусейн Сеид-заде) [1956, СССР, мюзикл, мелодрама, комедия, SATRip от AVP Studio]

Не та, так эта через торрент piratbit.org

Размер: 1.09 GB | Добавлен: 6 лет назад | Торрент скачан:18 раз
Смотреть онлайн Не та, так эта | Скачать   

06-09-2016 08:10 Не та, так эта Скачать торрент  

Не та, так эта
Страна: СССР
Производство: Азербайджанфильм

Жанр: мюзикл, мелодрама, комедия
Год выпуска: 1956
Продолжительность: 01:25:01

Перевод: Не требуется
Cубтитры: нет
Оригинальная аудиодорожка: русский

Режиссер: Гусейн Сеид-заде

В ролях:
Алиага Агаев, Ахмед Ахмедов (II), Ариф Мирзакулиев, Тамара Гёзалова, Агасадых Герайбейли, Барат Шекинская, Мовсун Санани, Лютфали Абдуллаев, Исмаил Эфендиев, Мустафа Марданов, Исмаил Османлы...
Полный список актёров

Описание:
Музыкальная комедия по мотивам одноименной оперетты Узеира Гаджибекова.
Действие происходит в Баку в 1910 году. Юноша и девушка горячо любят друг друга и мечтают соединить свои жизни. Но осуществить это намерение не так-то просто. Дело в том, что отец девушки хочет выдать ее за богатого старика, надеясь тем самым поправить свои пошатнувшиеся финансовые дела.
Нужно во что бы то ни стало сорвать планы отца. Но как это сделать? Старик упрям, никакие доводы на него но действуют.
Не намерен отказываться от своих притязаний и «жених». «У меня деньги, — рассуждает старый торгаш, — а что может быть сильнее денег?»
Но напрасно Мешеди Губад так уверен в силе своей туго набитой мошны. Настоящую любовь за деньги не купишь. И в этом он вскоре убеждается на собственном опыте.
Молодым людям приходится преодолеть немало препятствий. И, надо сказать, они умеют постоять за себя и вовсе не намерены отказываться от своего счастья...

Источник: DVB
Качество видео: SATRip
Формат видео: AVI

Видео: 704x528 (4:3), 25 fps, XviD ~ 1634 kbps avg, 0.176 bit/pixel
Аудио: 48 kHz, Dolby Digital AC3 2.0, 192 kbps

Раздача от:
Общее
Полное имя : Ne.ta,tak.yeta.1956.SATRip_[New-team]_by_AVP_Studio.avi
Формат : AVI
Формат/Информация : Audio Video Interleave
Размер файла : 1,09 Гбайт
Продолжительность : 1 ч. 25 м.
Общий поток : 1835 Кбит/сек
Программа кодирования : VirtualDubMod 1.5.10.3 | www.virtualdub-fr.org || (build 2550/release)
Библиотека кодирования : VirtualDubMod build 2550/release

Видео
Идентификатор : 0
Формат : MPEG-4 Visual
Профиль формата : Advanced Simple@L5
Параметр BVOP формата : 1
Параметр QPel формата : Нет
Параметр GMC формата : Без точки перехода
Параметр матрицы формата : Выборочная
Идентификатор кодека : XVID
Идентификатор кодека/Подсказка : XviD
Продолжительность : 1 ч. 25 м.
Битрейт : 1634 Кбит/сек
Ширина : 704 пикселя
Высота : 528 пикселей
Соотношение сторон : 4:3
Частота кадров : 25,000 кадров/сек
Цветовое пространство : YUV
Субдискретизация насыщенности : 4:2:0
Битовая глубина : 8 бит
Тип развёртки : Прогрессивная
Метод сжатия : С потерями
Бит/(Пиксели*Кадры) : 0.176
Размер потока : 994 Мбайт (89%)
Библиотека кодирования : XviD 1.2.1 (UTC 2008-12-04)

Аудио
Идентификатор : 1
Формат : AC-3
Формат/Информация : Audio Coding 3
Расширение режима : CM (complete main)
Параметр Endianness формата : Big
Идентификатор кодека : 2000
Продолжительность : 1 ч. 25 м.
Вид битрейта : Постоянный
Битрейт : 192 Кбит/сек
Каналы : 2 канала
Расположение каналов : Front: L R
Частота : 48,0 КГц
Частота кадров : 31,250 кадров/сек (1536 spf)
Метод сжатия : С потерями
Размер потока : 117 Мбайт (10%)
Выравнивание : Разделение по промежуткам
Продолжительность промежутка : 40 мс. (1,00 видеокадр)
Время предзагрузки промежутка : 500 мс



Скачать Не та, так эта через торрент http://s017.radikal.ru/i427/1609/86/1332d54a1de8.png Скачать, смотреть онлайн Не та, так эта бесплантно в хорошем качестве Описание:Музыкальная комедия по мотивам одноименной оперетты Узеира Гаджибекова.Действие происходит в Баку в 1910 году. Юноша и девушка ... 5 10 1
Info! Золотая раздача, скачанное не засчитывается.
Торрент: Зарегистрирован [2016-09-06 08:10] · скачан: 18 раз
Статус: √ проверено
Размер: 1.09 GB
Как cкачать? Как скачать Не та, так эта через торрент | UTorrent

% Раздел Тема Автор DL S | L
Кино СССР [ 1.09 GB ] Не та, так эта | | SATRip-AVC от AVP Studio AVP Studio Скачать
1 | 0

28-11-2019 20:33  

Отключить вcю реклaмy на сайте

    Дорогой пользователь! Огромная просьба, поблагодарите релизера, оцените раздачу и оставьте свои комментарий, если Вы скачали Не та, так эта через торрент бесплатно!!
    Комментировать посты могут только пользователи прошедшие не сложную регистрацию
    Показать сообщения:    


    Не та, так эта через торрент
    Скачать бесплатно Не та, так эта
    Не та, так эта скачать торрент
    Не та, так эта смотреть онлайн
    Cкачать фильм Не та, так эта бесплатно
    Не та, так эта скачать торрент в хорошем качестве
    Не та, так эта смотреть онлайн бесплатно в хорошем качестве
    Вы не можете начинать темы
    Вы не можете отвечать на сообщения
    Вы не можете редактировать свои сообщения
    Вы не можете удалять свои сообщения
    Вы не можете голосовать в опросах
    Вы не можете прикреплять файлы к сообщениям
    Вы можете скачивать файлы