1 сезон

3 сезон

iTunes

1

iTunes

DUB Netflix

iTunes

13

1 сезон

RePack

30

Deluxe

pack

Легкие деньги

ВАЖНО

ИГРА 18+

pack

RePack

MK11

RePack

jed

RePack

fifa19

RePack

RDR2

RePack

NEED FOR SPEED™ PAYBACK

4 сезон

9 сезон

Бесстыжие 9 сезон

Все сериалы

все сериалы на PB.wtf

RePack

FAR CRY 5

Anonymous, добрый день, мы не успеваем до 1 числа собрать деньги на оплату серверов, помогите нам пожалуйста в это трудное время. В качестве благодарности мы отключим Вам всю рекламу на сайте (укажите свой ник в строку Ваше имя)!

×
  
Magnet ссылка

До встречи с тобой / Me Before You (Теа Шэррок ) [2016, драма, BDRip-AVC от _denis_100 / NNNB] Дублированный piratbit.org

До встречи с тобой через торрент piratbit.org

Размер: 2.18 GB | Добавлен: 4 года 9 мес. назад | Торрент скачан:697 раз
Скачать  

06-09-2016 14:21 До встречи с тобой Скачать торрент  

До встречи с тобой / Me Before You


Год выпуска: 2016
Страна: США, Великобритания
Жанр: драма
Продолжительность: 01:50:14
Перевод: Дублированный
Субтитры: русские (iTunes), английские, английские (SDH)
Режиссер: Теа Шэррок
В ролях: Сэм Клафлин , Эмилия Кларк , Ванесса Кирби , Эйлин Данвуди , Пабло Рэйбоулд , Гэбриэлль Дауни , Генри Чарльз , Саманта Спиро , Брендан Койл , Дженна Коулман , Алан Брек , Мэттью Льюис
Описание:
Лу Кларк знает, сколько шагов от автобусной остановки до ее дома. Она знает, что ей очень нравится работа в кафе и что, скорее всего, она не любит своего бойфренда Патрика. Но Лу не знает, что вот-вот потеряет свою работу и что в ближайшем будущем ей понадобятся все силы, чтобы преодолеть свалившиеся на нее проблемы.

PG-13 - Детям до 13 лет просмотр не желателен
Качество: BDRip-AVC
Контейнер (Расширение): MKV
Видео: 1024x428, 1936 Кбит/сек, 23,976 кадр/сек, 0,184 Бит/[Пиксели*Кадры]
Аудио №1: русский / AC3 / 5.1 / 48 kHz / 448 kbps / |Дублированный, IPTV|
Аудио №2: английский / AC3 / 5.1 / 48 kHz / 448 kbps /
Навигация по главам(Чаптеры): естьАвтор рипа: Сообщество: *** за IPTV спасибо Bluebird-hd

Код:

Format                                   : Matroska
Format version                           : Version 2
File size                                : 2.18 GiB
Duration                                 : 1 h 50 min
Overall bit rate                         : 2 833 kb/s
Movie name                               : Me Before You.2016.BDRip-AVC.[denis100]
Encoded date                             : UTC 2016-09-06 14:08:12
Writing application                      : mkvmerge v5.8.0 ('No Sleep / Pillow') built on Sep  2 2012 15:37:04
Writing library                          : libebml v1.2.3 + libmatroska v1.3.0

Video
ID                                       : 1
Format                                   : AVC
Format/Info                              : Advanced Video Codec
Format profile                           : High@L4.1
Format settings, CABAC                   : Yes
Format settings, ReFrames                : 11 frames
Codec ID                                 : V_MPEG4/ISO/AVC
Duration                                 : 1 h 50 min
Bit rate                                 : 1 936 kb/s
Width                                    : 1 024 pixels
Height                                   : 428 pixels
Display aspect ratio                     : 2.40:1
Frame rate mode                          : Constant
Frame rate                               : 23.976 (24000/1001) FPS
Color space                              : YUV
Chroma subsampling                       : 4:2:0
Bit depth                                : 8 bits
Scan type                                : Progressive
Bits/(Pixel*Frame)                       : 0.184
Stream size                              : 1.45 GiB (66%)
Title                                    : Me Before You.2016.BDRip-AVC.[denis100]
Writing library                          : x264 core 148 r2705 3f5ed56
Encoding settings                        : cabac=1 / ref=11 / deblock=1:-3:-3 / analyse=0x3:0x133 / me=umh / subme=11 / psy=1 / psy_rd=1.00:0.05 / mixed_ref=1 / me_range=32 / chroma_me=1 / trellis=2 / 8x8dct=1 / cqm=0 / deadzone=21,11 / fast_pskip=0 / chroma_qp_offset=-3 / threads=6 / lookahead_threads=1 / sliced_threads=0 / nr=0 / decimate=1 / interlaced=0 / bluray_compat=0 / constrained_intra=0 / bframes=12 / b_pyramid=2 / b_adapt=2 / b_bias=0 / direct=3 / weightb=1 / open_gop=0 / weightp=2 / keyint=240 / keyint_min=23 / scenecut=40 / intra_refresh=0 / rc=2pass / mbtree=0 / bitrate=1936 / ratetol=1.0 / qcomp=0.60 / qpmin=0 / qpmax=69 / qpstep=4 / cplxblur=20.0 / qblur=0.5 / ip_ratio=1.40 / pb_ratio=1.30 / aq=1:1.00
Language                                 : English
Default                                  : Yes
Forced                                   : No

Audio #1
ID                                       : 2
Format                                   : AC-3
Format/Info                              : Audio Coding 3
Mode extension                           : CM (complete main)
Format settings, Endianness              : Big
Codec ID                                 : A_AC3
Duration                                 : 1 h 50 min
Bit rate mode                            : Constant
Bit rate                                 : 448 kb/s
Channel(s)                               : 6 channels
Channel positions                        : Front: L C R, Side: L R, LFE
Sampling rate                            : 48.0 kHz
Frame rate                               : 31.250 FPS (1536 spf)
Compression mode                         : Lossy
Stream size                              : 353 MiB (16%)
Title                                    : Дубляж, IPTV
Language                                 : Russian
Default                                  : Yes
Forced                                   : No

Audio #2
ID                                       : 3
Format                                   : AC-3
Format/Info                              : Audio Coding 3
Mode extension                           : CM (complete main)
Format settings, Endianness              : Big
Codec ID                                 : A_AC3
Duration                                 : 1 h 50 min
Bit rate mode                            : Constant
Bit rate                                 : 448 kb/s
Channel(s)                               : 6 channels
Channel positions                        : Front: L C R, Side: L R, LFE
Sampling rate                            : 48.0 kHz
Frame rate                               : 31.250 FPS (1536 spf)
Compression mode                         : Lossy
Stream size                              : 353 MiB (16%)
Language                                 : English
Default                                  : No
Forced                                   : No

Text #1
ID                                       : 4
Format                                   : UTF-8
Codec ID                                 : S_TEXT/UTF8
Codec ID/Info                            : UTF-8 Plain Text
Title                                    : iTunes
Language                                 : Russian
Default                                  : No
Forced                                   : No

Text #2
ID                                       : 5
Format                                   : UTF-8
Codec ID                                 : S_TEXT/UTF8
Codec ID/Info                            : UTF-8 Plain Text
Language                                 : English
Default                                  : No
Forced                                   : No

Text #3
ID                                       : 6
Format                                   : UTF-8
Codec ID                                 : S_TEXT/UTF8
Codec ID/Info                            : UTF-8 Plain Text
Title                                    : SDH
Language                                 : English
Default                                  : No
Forced                                   : No

Menu
00:00:00.000                             : en:00:00:00.000
00:12:40.969                             : en:00:12:40.969
00:20:01.575                             : en:00:20:01.575
00:29:06.244                             : en:00:29:06.244
00:39:38.418                             : en:00:39:38.418
00:49:13.868                             : en:00:49:13.868
01:01:15.547                             : en:01:01:15.547
01:10:16.796                             : en:01:10:16.796
01:19:16.418                             : en:01:19:16.418
01:32:06.479                             : en:01:32:06.479
01:37:58.331                             : en:01:37:58.331
01:45:55.349                             : en:01:45:55.349

piratbit.org



Скачать До встречи с тобой через торрент http://i6.imageban.ru/out/2016/09/06/1c6c82d34c110caec1795e8afc36ec78.png Скачать фильм До встречи с тобой через торрент бесплантно в хорошем качестве Описание:Лу Кларк знает, сколько шагов от автобусной остановки до ее дома. Она знает, что ей очень нравится работа в кафе и что, скорее ... 10 10 14
Info! Золотая раздача, скачанное не засчитывается.
Торрент: Зарегистрирован [2016-09-06 14:21] · скачан: 697 раз
Статус: √ проверено
Размер: 2.18 GB
Как cкачать? Как скачать До встречи с тобой через торрент | UTorrent

% Раздел Тема Автор DL S | L
Фильмы [HD 720p, 1080p] (Хороший звук DUB, MVO) [ 12.15 GB ] До встречи с тобой / Me Before You [2016 BDRip 1080p от NNNB] _denis_100 Скачать
1 | 0

28-11-2019 20:33  

Отключить всю рекламу на сайте

    Дорогой пользователь! Огромная просьба, поблагодарите релизера, оцените раздачу и оставьте свои комментарий, если Вы скачали До встречи с тобой через торрент бесплатно! Внесите свою лепту в развитие PiratBit!
    Комментировать посты могут только пользователи прошедшие не сложную регистрацию
    Показать сообщения:    

    До встречи с тобой через торрент
    Скачать бесплатно До встречи с тобой
    До встречи с тобой скачать торрент
    До встречи с тобой смотреть онлайн
    Cкачать фильм До встречи с тобой бесплатно
    До встречи с тобой скачать торрент в хорошем качестве
    До встречи с тобой смотреть онлайн бесплатно в хорошем качестве


    Вы не можете начинать темы
    Вы не можете отвечать на сообщения
    Вы не можете редактировать свои сообщения
    Вы не можете удалять свои сообщения
    Вы не можете голосовать в опросах
    Вы не можете прикреплять файлы к сообщениям
    Вы можете скачивать файлы