1 сезон

3 сезон

iTunes

1

iTunes

DUB Netflix

iTunes

13

1 сезон

RePack

30

Deluxe

pack

Легкие деньги

ВАЖНО

ИГРА 18+

pack

RePack

MK11

RePack

jed

RePack

fifa19

RePack

RDR2

RePack

NEED FOR SPEED™ PAYBACK

4 сезон

9 сезон

Бесстыжие 9 сезон

Все сериалы

все сериалы на PB.wtf

RePack

FAR CRY 5

Anonymous, добрый день, мы не успеваем до 1 числа собрать деньги на оплату серверов, помогите нам пожалуйста в это трудное время. В качестве благодарности мы отключим Вам всю рекламу на сайте (укажите свой ник в строку Ваше имя)!

×
  
Magnet ссылка

Иллюзия обмана 2 / Now You See Me 2 (Джон М. Чу ) [2016, боевик, триллер, комедия, BDRip-AVC от potroks] [US-Transfer] Dub [Лицензия] piratbit.org

Иллюзия обмана 2 через торрент piratbit.org

Размер: 2.91 GB | Добавлен: 4 года 9 мес. назад | Торрент скачан:1817 раз
Скачать  

09-09-2016 07:09 Иллюзия обмана 2 Скачать торрент  

Иллюзия обмана 2 / Now You See Me 2

Год выпуска: 2016
Страна: США, Китай, Великобритания, Канада / Lionsgate, Summit Entertainment
Жанр: боевик, триллер, комедия, криминал, детектив, приключения
Продолжительность: 02:09:39
Перевод: Дубляж [Blu-ray RUS]
Субтитры: русские, английские (Full + SDH)
Навигация по главам: есть
Режиссер: Джон М. Чу
В ролях:

Джесси Айзенберг (J. Daniel Atlas), Марк Руффало (Dylan Rhodes), Вуди Харрельсон (Merritt McKinney), Дэйв Франко (Jack Wilder), Дэниэл Рэдклифф (Walter Mabry), Лиззи Каплан (Lula), Джей Чоу (Li), Санаа Лэтэн (Deputy Director Natalie Austin), Майкл Кейн (Arthur Tressler), Морган Фриман (Thaddeus Bradley), Дэвид Уоршофски (Agent Cowan), Тсаи Чин (Bu Bu)
Описание: «Четыре всадника», команда лучших иллюзионистов мира, снова в сборе! Их «магия» стала еще совершеннее, а враги - опаснее. На сей раз им предстоит спасти свою репутацию и вывести на чистую воду жестокого техномагната...

Качество: BDRip-AVC
Формат: MKV
Видео: AVC, 1056x440 (2,40:1), 2320 kbps, 23,976 fps, 0.208 bpp
Аудио#1: AC3 / 5.1 / 48 kHz / 448 kbps / 16 bit | RUS
Аудио#2: AC3 / 5.1 / 48 kHz / 448 kbps / 16 bit | ENG

Код:

Общее
Уникальный идентификатор : 223224989063483329419920855509094576475 (0xA7EF91AF0C930B40B90971881457315B)
Полное имя : F:\Боевики\Illuziya.Obmana.2.2016.US.DUAL.BDRip.x264.-HELLYWOOD.mkv
Формат : Matroska
Версия формата : Version 4 / Version 2
Размер файла : 2,91 Гбайт
Продолжительность : 2 ч. 9 м.
Общий поток : 3215 Кбит/сек
Название фильма : Now You See Me 2 (2016)
Дата кодирования : UTC 2016-09-04 14:48:55
Программа кодирования : mkvmerge v5.9.0 ('On The Loose') built on Dec 15 2012 16:39:58
Библиотека кодирования : libebml v1.3.0 + libmatroska v1.4.0

Видео
Идентификатор : 1
Формат : AVC
Формат/Информация : Advanced Video Codec
Профиль формата : High@L4.1
Параметр CABAC формата : Да
Параметр ReFrames формата : 10 кадров
Идентификатор кодека : V_MPEG4/ISO/AVC
Продолжительность : 2 ч. 9 м.
Битрейт : 2320 Кбит/сек
Ширина : 1056 пикселей
Высота : 440 пикселей
Соотношение сторон : 2,40:1
Режим частоты кадров : Постоянный
Частота кадров : 23,976 (24000/1001) кадра/сек
Цветовое пространство : YUV
Субдискретизация насыщенности : 4:2:0
Битовая глубина : 8 бит
Тип развёртки : Прогрессивная
Бит/(Пиксели*Кадры) : 0.208
Размер потока : 2,04 Гбайт (70%)
Заголовок : potroks
Библиотека кодирования : x264 core 146 r2538 121396c
Настройки программы : cabac=1 / ref=10 / deblock=1:-2:-2 / analyse=0x3:0x113 / me=umh / subme=11 / psy=1 / psy_rd=0.98:0.00 / mixed_ref=1 / me_range=48 / chroma_me=1 / trellis=2 / 8x8dct=1 / cqm=0 / deadzone=21,11 / fast_pskip=0 / chroma_qp_offset=-2 / threads=9 / lookahead_threads=2 / sliced_threads=0 / nr=0 / decimate=0 / interlaced=0 / bluray_compat=0 / constrained_intra=0 / bframes=11 / b_pyramid=2 / b_adapt=2 / b_bias=0 / direct=3 / weightb=1 / open_gop=0 / weightp=2 / keyint=240 / keyint_min=23 / scenecut=40 / intra_refresh=0 / rc_lookahead=60 / rc=2pass / mbtree=0 / bitrate=2320 / ratetol=1.0 / qcomp=0.70 / qpmin=0 / qpmax=69 / qpstep=4 / cplxblur=20.0 / qblur=0.5 / vbv_maxrate=14000 / vbv_bufsize=14000 / nal_hrd=none / filler=0 / ip_ratio=1.40 / pb_ratio=1.30 / aq=1:0.80
Язык : English
Default : Да
Forced : Нет

Аудио #1
Идентификатор : 2
Формат : AC-3
Формат/Информация : Audio Coding 3
Расширение режима : CM (complete main)
Параметр Endianness формата : Big
Идентификатор кодека : A_AC3
Продолжительность : 2 ч. 9 м.
Вид битрейта : Постоянный
Битрейт : 448 Кбит/сек
Каналы : 6 каналов
Расположение каналов : Front: L C R, Side: L R, LFE
Частота : 48,0 КГц
Частота кадров : 31,250 кадров/сек (1536 spf)
Метод сжатия : С потерями
Размер потока : 415 Мбайт (14%)
Заголовок : Dub | DD 5.1 @ 448 kbps - Blu-ray RUS
Язык : Russian
Default : Да
Forced : Нет

Аудио #2
Идентификатор : 3
Формат : AC-3
Формат/Информация : Audio Coding 3
Расширение режима : CM (complete main)
Параметр Endianness формата : Big
Идентификатор кодека : A_AC3
Продолжительность : 2 ч. 9 м.
Вид битрейта : Постоянный
Битрейт : 448 Кбит/сек
Каналы : 6 каналов
Расположение каналов : Front: L C R, Side: L R, LFE
Частота : 48,0 КГц
Частота кадров : 31,250 кадров/сек (1536 spf)
Метод сжатия : С потерями
Размер потока : 415 Мбайт (14%)
Заголовок : Original | DD 5.1 @ 448 kbps
Язык : English
Default : Нет
Forced : Нет

Текст #1
Идентификатор : 4
Формат : UTF-8
Идентификатор кодека : S_TEXT/UTF8
Идентификатор кодека/Информация : UTF-8 Plain Text
Заголовок : Blu-ray
Язык : Russian
Default : Нет
Forced : Нет

Текст #2
Идентификатор : 5
Формат : UTF-8
Идентификатор кодека : S_TEXT/UTF8
Идентификатор кодека/Информация : UTF-8 Plain Text
Заголовок : Full
Язык : English
Default : Нет
Forced : Нет

Текст #3
Идентификатор : 6
Формат : UTF-8
Идентификатор кодека : S_TEXT/UTF8
Идентификатор кодека/Информация : UTF-8 Plain Text
Заголовок : SDH
Язык : English
Default : Нет
Forced : Нет

Меню
00:00:00.000 : en:00:00:00.000
00:07:05.133 : en:00:07:05.133
00:16:03.838 : en:00:16:03.838
00:25:29.570 : en:00:25:29.570
00:33:16.828 : en:00:33:16.828
00:39:57.645 : en:00:39:57.645
00:48:07.718 : en:00:48:07.718
00:53:34.711 : en:00:53:34.711
01:03:53.246 : en:01:03:53.246
01:14:00.561 : en:01:14:00.561
01:20:23.569 : en:01:20:23.569
01:26:37.400 : en:01:26:37.400
01:32:37.051 : en:01:32:37.051
01:38:46.837 : en:01:38:46.837
01:48:13.529 : en:01:48:13.529
01:54:04.921 : en:01:54:04.921

piratbit.org



Скачать Иллюзия обмана 2 через торрент http://i84.fastpic.ru/big/2016/0909/8d/d775881ba20556b08d67190ef357968d.png Скачать фильм Иллюзия обмана 2 через торрент бесплантно в хорошем качестве Описание: «Четыре всадника», команда лучших иллюзионистов мира, снова в сборе! Их «магия» стала еще совершеннее, а враги - опаснее. На сей ... 10 10 31
Info! Золотая раздача, скачанное не засчитывается.
Торрент: Зарегистрирован [2016-09-09 07:09] · скачан: 1 817 раз
Статус: √ проверено
Размер: 2.91 GB
Как cкачать? Как скачать Иллюзия обмана 2 через торрент | UTorrent

% Раздел Тема Автор DL S | L
Фильмы (HD 720p, 1080p) (48-60 fps) [ 4.73 GB ] Иллюзия обмана 2 / Now You See Me 2 [2016 BDRip 720p / 60 FPS ] от R.G. HD-Films slaventi-69 Скачать
3 | 0
Официальные cаундтреки к зарубежным фильмам [ 233 MB ] Иллюзия обмана 2 / Now You See Me 2 2016 / MP3 / 192 kbps / SoundtrackScore BomjJamesBomj Скачать
1 | 0
Ultra HD (UHD: 2K, 4K, 8K) — видео сверхвысокой чёткости [ 57.67 GB ] Иллюзия обмана 2 / Now You See Me 2 [2016 UHD BDRemux 2160p] DUB [] bober100 Скачать
1 | 0
Фильмы с авторской озвучкой [ 1.47 GB ] Иллюзия обмана 2 / Now You See Me 2 [2016 BDRip] [AVO] killermax2013 Скачать
1 | 0
Фильмы (DVD фильмы) [ 7.53 GB ] Иллюзия обмана 2 / Now You See Me 2 [2016 DVD9] R5 voovaz Скачать
1 | 0
Фильмы 2016 [DVDrip, WEB-DLRip, HDrip] (DUB, MVO) [ 2.18 GB ] Иллюзия обмана 2 / Now You See Me 2 [2016 HDRip ] coc900 Скачать
2 | 0
Фильмы 2016 [DVDrip, WEB-DLRip, HDrip] (DUB, MVO) [ 1.46 GB ] Иллюзия обмана 2 / Now You See Me 2 [2016 Китай BDRip-AVC от sokol_ok] sokol_ok Скачать
2 | 0

28-11-2019 20:33  

Отключить всю рекламу на сайте

    Дорогой пользователь! Огромная просьба, поблагодарите релизера, оцените раздачу и оставьте свои комментарий, если Вы скачали Иллюзия обмана 2 через торрент бесплатно! Внесите свою лепту в развитие PiratBit!
    Комментировать посты могут только пользователи прошедшие не сложную регистрацию
    Показать сообщения:    

    Иллюзия обмана 2 через торрент
    Скачать бесплатно Иллюзия обмана 2
    Иллюзия обмана 2 скачать торрент
    Иллюзия обмана 2 смотреть онлайн
    Cкачать фильм Иллюзия обмана 2 бесплатно
    Иллюзия обмана 2 скачать торрент в хорошем качестве
    Иллюзия обмана 2 смотреть онлайн бесплатно в хорошем качестве


    Вы не можете начинать темы
    Вы не можете отвечать на сообщения
    Вы не можете редактировать свои сообщения
    Вы не можете удалять свои сообщения
    Вы не можете голосовать в опросах
    Вы не можете прикреплять файлы к сообщениям
    Вы можете скачивать файлы