1 сезон

3 сезон

iTunes

1

iTunes

DUB Netflix

iTunes

13

1 сезон

RePack

30

Deluxe

pack

Легкие деньги

ВАЖНО

ИГРА 18+

pack

RePack

MK11

RePack

jed

RePack

fifa19

RePack

RDR2

RePack

NEED FOR SPEED™ PAYBACK

4 сезон

9 сезон

Бесстыжие 9 сезон

Все сериалы

все сериалы на PB.wtf

RePack

FAR CRY 5

Anonymous, добрый день, мы не успеваем до 1 числа собрать деньги на оплату серверов, помогите нам пожалуйста в это трудное время. В качестве благодарности мы отключим Вам всю рекламу на сайте (укажите свой ник в строку Ваше имя)!

×
  
Magnet ссылка

Черепашки-ниндзя 2 / Teenage Mutant Ninja Turtles: Out of the Shadows (Дэйв Грин) [2016, фантастика, фэнтези, боевик, комедия, приключения, HDRip-AVC] [Dub] [Лицензия / iTunes] piratbit.org

Черепашки-ниндзя 2 через торрент piratbit.org

Размер: 3.34 GB | Добавлен: 4 года 9 мес. назад | Торрент скачан:178 раз
Скачать  

09-09-2016 20:44 Черепашки-ниндзя 2 Скачать торрент  

Черепашки-ниндзя 2 / Teenage Mutant Ninja Turtles: Out of the Shadows«Raise some shell»
Год выпуска » 2016
Страна » США, Гонконг, Китай, Канада
Жанр » Фантастика, фэнтези, боевик, комедия, приключения
Длительность » 01:52:57
Перевод » Профессиональный (полное дублирование) [iTunes]
Субтитры » Русские (Forced,full), английские (full, SDH)
В ролях
» Меган Фокс, Стивен Амелл, Алан Ричсон, Уилл Арнетт, Стефен Фаррелли, Алессандра Амброзио, Брэд Гэррет, Тайлер Перри

Режиссёр
» Дэйв Грин
Описание:
» Долгое время черепашки-ниндзя скрывались от людей в лабиринтах городской канализации. На протяжении нескольких лет учитель Сплинтер обучал их боевым искусствам и прививал им чувство справедливости. В один прекрасный момент им пришлось подняться наверх, чтобы спасти Нью-Йорк от Шредера, предводителя Клана Футов, захватившего Влacть в Нью-Йорке. Вместе с отважным репортером Эйприл и ее оператором Верном, бесстрашные воины смогли одержать победу и очистить любимый город от преступности. Леонардо, Микеланджело, Рафаэль и Донателло нашли свое предназначение в этом мире и стали защитниками своего города. Они навели порядок в Нью-Йорке и с чистой совестью могли отправиться на покой, но однажды им вновь пришлось столкнуться с могущественным врагом, угрожающим их городу…

• Качество » HDRip-AVC
• Формат » MKV
• Видео кодек » AVC
• Аудио кодек » AC3
• Видео »MPEG-4 AVC, 3500 Кбит/с, 1024x426, 23.976 fps
• Аудио » Русский (AC-3 / 6 ch / 384 kbps / 48,0 КГц / 16 bit )
• Аудио » Английский (AC-3 / 6 ch / 384 kbps / 48,0 КГц / 16 bit)



Бюджет: $135 000 000
Сборы в США: $81 987 616
Сборы в мире: + $160 500 000 = $242 487 616
Сборы в России: $9 798 717
Дата мировой премьеры: 22 мая 2016
Дата российской премьеры: 2 июня 2016, «Централ Партнершип»

Код:

General
Unique ID : 182771409012090343114637553394567076581 (0x89807E3296B8DA4F8384A9B0C56BDAE5)
Complete name : E:TMNT.2.2O16.D.AVC.ExKinoRay.mkv
Format : Matroska
Format version : Version 2
File size : 3.34 GiB
Duration : 1 h 52 min
Overall bit rate : 4 269 kb/s
Movie name : Черепашки-ниндзя 2 2016 from ExKinoRay
Encoded date : UTC 2016-09-09 04:54:06
Writing application : mkvmerge v7.6.0 ('Garden of Dreams') 32bit built on Feb 11 2015 00:18:47
Writing library : libebml v1.3.1 + libmatroska v1.4.2

Video
ID : 1
Format : AVC
Format/Info : Advanced Video Codec
Format profile : High@L4.1
Format settings, CABAC : Yes
Format settings, ReFrames : 12 frames
Codec ID : V_MPEG4/ISO/AVC
Duration : 1 h 52 min
Bit rate : 3 500 kb/s
Width : 1 024 pixels
Height : 426 pixels
Display aspect ratio : 2.40:1
Frame rate mode : Constant
Frame rate : 23.976 (23976/1000) FPS
Color space : YUV
Chroma subsampling : 4:2:0
Bit depth : 8 bits
Scan type : Progressive
Bits/(Pixel*Frame) : 0.335
Stream size : 2.68 GiB (80%)
Title : Enigma
Writing library : x264 core 144 r2525 40bb568
Encoding settings : cabac=1 / ref=12 / deblock=1:-3:-3 / analyse=0x3:0x113 / me=umh / subme=10 / psy=1 / psy_rd=1.03:0.10 / mixed_ref=1 / me_range=32 / chroma_me=1 / trellis=2 / 8x8dct=1 / cqm=0 / deadzone=21,11 / fast_pskip=0 / chroma_qp_offset=-3 / threads=12 / lookahead_threads=2 / sliced_threads=0 / nr=0 / decimate=0 / interlaced=0 / bluray_compat=0 / constrained_intra=0 / bframes=9 / b_pyramid=2 / b_adapt=2 / b_bias=0 / direct=3 / weightb=1 / open_gop=0 / weightp=2 / keyint=240 / keyint_min=23 / scenecut=40 / intra_refresh=0 / rc_lookahead=40 / rc=2pass / mbtree=0 / bitrate=3500 / ratetol=1.0 / qcomp=0.64 / qpmin=0 / qpmax=51 / qpstep=4 / cplxblur=20.0 / qblur=0.5 / vbv_maxrate=50000 / vbv_bufsize=62500 / nal_hrd=none / filler=0 / ip_ratio=1.40 / pb_ratio=1.30 / aq=1:0.80
Language : English
Default : Yes
Forced : No
Color range : Limited
Color primaries : BT.709
Transfer characteristics : BT.709
Matrix coefficients : BT.709

Audio #1
ID : 2
Format : AC-3
Format/Info : Audio Coding 3
Mode extension : CM (complete main)
Format settings, Endianness : Big
Codec ID : A_AC3
Duration : 1 h 52 min
Bit rate mode : Constant
Bit rate : 384 kb/s
Channel(s) : 6 channels
Channel positions : Front: L C R, Side: L R, LFE
Sampling rate : 48.0 kHz
Frame rate : 31.250 FPS (1536 spf)
Compression mode : Lossy
Stream size : 308 MiB (9%)
Title : iTunes
Language : Russian
Default : Yes
Forced : No

Audio #2
ID : 3
Format : AC-3
Format/Info : Audio Coding 3
Mode extension : CM (complete main)
Format settings, Endianness : Big
Codec ID : A_AC3
Duration : 1 h 52 min
Bit rate mode : Constant
Bit rate : 384 kb/s
Channel(s) : 6 channels
Channel positions : Front: L C R, Side: L R, LFE
Sampling rate : 48.0 kHz
Frame rate : 31.250 FPS (1536 spf)
Compression mode : Lossy
Stream size : 308 MiB (9%)
Language : English
Default : No
Forced : No

Text #1
ID : 4
Format : UTF-8
Codec ID : S_TEXT/UTF8
Codec ID/Info : UTF-8 Plain Text
Title : forced
Language : Russian
Default : Yes
Forced : No

Text #2
ID : 5
Format : UTF-8
Codec ID : S_TEXT/UTF8
Codec ID/Info : UTF-8 Plain Text
Title : full
Language : Russian
Default : No
Forced : No

Text #3
ID : 6
Format : UTF-8
Codec ID : S_TEXT/UTF8
Codec ID/Info : UTF-8 Plain Text
Title : full
Language : English
Default : No
Forced : No

Text #4
ID : 7
Format : UTF-8
Codec ID : S_TEXT/UTF8
Codec ID/Info : UTF-8 Plain Text
Title : SDH
Language : English
Default : No
Forced : No

Menu
00:00:00.000 : en:00:00:00.000
00:05:55.564 : en:00:05:55.564
00:12:18.571 : en:00:12:18.571
00:18:53.507 : en:00:18:53.507
00:26:38.096 : en:00:26:38.096
00:33:14.492 : en:00:33:14.492
00:38:56.459 : en:00:38:56.459
00:44:11.190 : en:00:44:11.190
00:49:40.311 : en:00:49:40.311
00:55:40.629 : en:00:55:40.629
01:02:01.259 : en:01:02:01.259
01:04:51.971 : en:01:04:51.971
01:14:32.760 : en:01:14:32.760
01:21:18.415 : en:01:21:18.415
01:28:10.160 : en:01:28:10.160
01:36:58.229 : en:01:36:58.229
01:41:52.023 : en:01:41:52.023
01:46:20.874 : en:01:46:20.874

скриншот  скриншот  скриншот  скриншот  скриншот  
Релиз от: piratbit.org



Скачать Черепашки-ниндзя 2 через торрент http://s1.pic.pb.wtf/images/10/qjilv.jpg Скачать фильм Черепашки-ниндзя 2 через торрент бесплантно в хорошем качестве Описание:» Долгое время черепашки-ниндзя скрывались от людей в лабиринтах городской канализации. На протяжении нескольких лет учитель ... 10 10 4
Info! Золотая раздача, скачанное не засчитывается.
Торрент: Зарегистрирован [2016-09-09 20:44] · скачан: 178 раз
Статус: √ проверено
Размер: 3.34 GB
Как cкачать? Как скачать Черепашки-ниндзя 2 через торрент | UTorrent

% Раздел Тема Автор DL S | L
Фильмы [HD 720p, 1080p] (Хороший звук DUB, MVO) [ 7.37 GB ] Черепашки-ниндзя 2 / Teenage Mutant Ninja Turtles: Out of the Shadows [2016 BDRip-HEVC 1080p] DUB [] bober100 Скачать
1 | 0
Ultra HD (UHD: 2K, 4K, 8K) — видео сверхвысокой чёткости [ 59.98 GB ] Черепашки-ниндзя 2 / Teenage Mutant Ninja Turtles: Out of the Shadows [2016 UHD BDRemux 2160p] 2xAVO+DUB [] bober100 Скачать
1 | 0
Ultra HD (UHD: 2K, 4K, 8K) — видео сверхвысокой чёткости [ 64.44 GB ] Черепашки-ниндзя 2 / Teenage Mutant Ninja Turtles: Out of the Shadows [2016 UHD Blu-ray 2160p] 2xAVO+DUB [] bober100 Скачать
1 | 0
3D Фильмы [ 16.29 GB ] Черепашки-ниндзя 2 в 3D / Teenage Mutant Ninja Turtles: Out of the Shadows 3D [2016 3D BDRip 1080p] / Half OverUnder sheker187 Скачать
1 | 0
Ultra HD (UHD: 2K, 4K, 8K) — видео сверхвысокой чёткости [ 51.76 GB ] Черепашки-ниндзя 2 / Teenage Mutant Ninja Turtles: Out of the Shadows [2016 UHDWEBRip 2160p] - [] sheker187 Скачать
1 | 0
Фильмы (HD 720p, 1080p) (48-60 fps) [ 6.1 GB ] Черепашки-ниндзя 2 / Teenage Mutant Ninja Turtles: Out of the Shadows [2016 BDRip 720p 60 fps от еnvy / NNNB] DUB еnvy Скачать
4 | 0
T Релизы по Парсеру [Игры, Сериалы и Фильмы и другое...] [ 746 MB ] Черепашки-ниндзя 2 / Teenage Mutant Ninja Turtles: Out of the Shadows WEB-DLRip от MegaPeer / Ворон Скачать
1 | 0

28-11-2019 20:33  

Отключить всю рекламу на сайте

21-09-2016 10:20 Черепашки-ниндзя 2 Скачать торрент  

Смотреть можно)piratbit.org



    Дорогой пользователь! Огромная просьба, поблагодарите релизера, оцените раздачу и оставьте свои комментарий, если Вы скачали Черепашки-ниндзя 2 через торрент бесплатно! Внесите свою лепту в развитие PiratBit!
    Комментировать посты могут только пользователи прошедшие не сложную регистрацию
    Показать сообщения:    

    Черепашки-ниндзя 2 через торрент
    Скачать бесплатно Черепашки-ниндзя 2
    Черепашки-ниндзя 2 скачать торрент
    Черепашки-ниндзя 2 смотреть онлайн
    Cкачать фильм Черепашки-ниндзя 2 бесплатно
    Черепашки-ниндзя 2 скачать торрент в хорошем качестве
    Черепашки-ниндзя 2 смотреть онлайн бесплатно в хорошем качестве


    Вы не можете начинать темы
    Вы не можете отвечать на сообщения
    Вы не можете редактировать свои сообщения
    Вы не можете удалять свои сообщения
    Вы не можете голосовать в опросах
    Вы не можете прикреплять файлы к сообщениям
    Вы можете скачивать файлы